Регистрация ·  Логин: Пароль: Запомнить   · Забыли пароль?




Ответить на тему
Статистика раздачи
Размер: 2.13 ГБ | Зарегистрирован: 13 окт 2020, 01:43 | .torrent скачан: 0 раз(а), DHT: [ 1221 ] раз(а)
Сидеров: [ 9  | 0 байт/сек ]   Личеров: [ 1  | 0 байт/сек ]   DHT: [ 9 / 1 ]
Автор Сообщение

Модератор

С нами: 2 года 4 месяца
Сообщения: 3361
Россия

Сообщение 13 окт 2020, 01:43 

[Цитировать]


«Поверь в мечту»

Информация о фильме
Название: Секрет
Оригинальное название: The Secret: Dare to Dream
Год выхода: 2020
Жанр: Драма, мелодрама
Режиссер: Энди Теннант
В ролях: Кэти Холмс, Джош Лукас, Джерри О`Коннелл, Селия Уэстон, Сара Хоффмайстер, Эйдан Пирс Бреннан, Хлоя Ли, Катрина Бегин, Сидни Теннант, Саманта Больё

О фильме:
Когда сильный шторм разрушает дом молодой вдовы с тремя детьми, на пороге появляется таинственный незнакомец. Всего за несколько дней загадочный гость объединяет семью и помогает им найти новый смысл в жизни. Он открывает им Секрет, который может изменить все.



Страна: США
Студия: Covert Media, Illumination Productions, Robert Cort Productions, Savvy Media Holdings, Shine Box Media Group, Tri G
Продолжительность: 01:47:36
Перевод:
• Профессиональный (полное дублирование) | iTunes

Файл
Качество: BDRip-AVC
Исходник: The.Secret.Dare.to.Dream.2020.BDREMUX.1080p.seleZen.mkv
Формат: MKV
Кодек: MPEG-4 AVC
Видео: 1024x428 (2,40:1), 23.976 fps, MPEG-4 AVC ~ 2000 Kbps avg, 0.190 bit/pixel
Аудио: AC3, 48 kHz, 6 ch, ~384.00 kbps avg | русский | iTunes
Аудио: AC3, 48 kHz, 6 ch, ~448.00 kbps avg | английский | Оригинал
Субтитры: Английские (Full)



Общее
Уникальный идентификатор : 93526001197327179680956617858791943702 (0x465C73DF75A84BD60D019D1C8596AE16)
Полное имя : E:TorrentsFilesThe.Secret.Dare.to.Dream.2020.BDRip.2.13Gb.x264.mkv
Формат : Matroska
Версия формата : Version 4
Размер файла : 2,13 Гбайт
Продолжительность : 1 ч. 47 м.
Общий поток : 2 830 Кбит/сек
Название фильма : Секрет / The Secret: Dare to Dream (2020)
Дата кодирования : UTC 2020-10-06 17:41:11
Программа кодирования : mkvmerge v47.0.0 ('Black Flag') 64-bit
Библиотека кодирования : libebml v1.3.10 + libmatroska v1.5.2
Обложка : Yes
Attachments : cover.jpg

Видео
Идентификатор : 1
Формат : AVC
Формат/Информация : Advanced Video Codec
Профиль формата : [email protected]
Настройки формата : CABAC / 10 Ref Frames
Параметр CABAC формата : Да
Параметр RefFrames формата : 10 кадров
Идентификатор кодека : V_MPEG4/ISO/AVC
Продолжительность : 1 ч. 47 м.
Битрейт : 2 000 Кбит/сек
Ширина : 1 024 пикселя
Высота : 428 пикселей
Соотношение сторон : 2,40:1
Режим частоты кадров : Постоянный
Частота кадров : 23,976 (24000/1001) кадра/сек
Цветовое пространство : YUV
Субдискретизация насыщенности : 4:2:0
Битовая глубина : 8 бит
Тип развёртки : Прогрессивная
Бит/(Пиксели*Кадры) : 0.190
Размер потока : 1,50 Гбайт (71%)
Заголовок : #stillet
Библиотека кодирования : x264 core 152 r2851bm ba24899
Настройки программы : cabac=1 / ref=10 / deblock=1:-2:-2 / analyse=0x3:0x113 / me=umh / subme=10 / psy=1 / psy_rd=1.00:0.15 / mixed_ref=1 / me_range=32 / chroma_me=1 / trellis=2 / 8x8dct=1 / cqm=0 / deadzone=21,11 / fast_pskip=0 / chroma_qp_offset=-3 / threads=8 / lookahead_threads=3 / sliced_threads=0 / nr=0 / decimate=0 / interlaced=0 / bluray_compat=0 / constrained_intra=0 / bframes=11 / b_pyramid=2 / b_adapt=2 / b_bias=0 / direct=3 / weightb=1 / open_gop=0 / weightp=2 / keyint=240 / keyint_min=23 / scenecut=40 / intra_refresh=0 / rc=2pass / mbtree=0 / bitrate=2000 / ratetol=1.0 / qcomp=0.60 / qpmin=0 / qpmax=69 / qpstep=4 / cplxblur=20.0 / qblur=0.5 / ip_ratio=1.40 / pb_ratio=1.30 / aq=1:1.00
Язык : English
Default : Да
Forced : Нет

Аудио #1
Идентификатор : 2
Формат : AC-3
Формат/Информация : Audio Coding 3
Коммерческое название : Dolby Digital
Идентификатор кодека : A_AC3
Продолжительность : 1 ч. 47 м.
Вид битрейта : Постоянный
Битрейт : 384 Кбит/сек
Каналы : 6 каналов
Channel layout : L R C LFE Ls Rs
Частота : 48,0 КГц
Частота кадров : 31,250 кадров/сек (1536 SPF)
Метод сжатия : С потерями
Размер потока : 295 Мбайт (14%)
Заголовок : iTunes
Язык : Russian
Service kind : Complete Main
Default : Да
Forced : Да

Аудио #2
Идентификатор : 3
Формат : AC-3
Формат/Информация : Audio Coding 3
Коммерческое название : Dolby Digital
Идентификатор кодека : A_AC3
Продолжительность : 1 ч. 47 м.
Вид битрейта : Постоянный
Битрейт : 448 Кбит/сек
Каналы : 6 каналов
Channel layout : L R C LFE Ls Rs
Частота : 48,0 КГц
Частота кадров : 31,250 кадров/сек (1536 SPF)
Метод сжатия : С потерями
Размер потока : 345 Мбайт (16%)
Язык : English
Service kind : Complete Main
Default : Нет
Forced : Нет

Текст
Идентификатор : 4
Формат : UTF-8
Идентификатор кодека : S_TEXT/UTF8
Идентификатор кодека/Информация : UTF-8 Plain Text
Продолжительность : 1 ч. 39 м.
Битрейт : 66 бит/сек
Count of elements : 1549
Размер потока : 48,3 Кбайт (0%)
Заголовок : Full
Язык : English
Default : Нет
Forced : Нет

Меню
00:00:00.000 : en:Chapter 1
00:04:28.893 : en:Chapter 2
00:09:33.656 : en:Chapter 3
00:16:22.189 : en:Chapter 4
00:24:55.202 : en:Chapter 5
00:32:44.837 : en:Chapter 6
00:37:57.984 : en:Chapter 7
00:45:51.165 : en:Chapter 8
00:50:51.214 : en:Chapter 9
00:56:12.118 : en:Chapter 10
01:02:20.987 : en:Chapter 11
01:11:14.853 : en:Chapter 12
01:20:20.440 : en:Chapter 13
01:25:20.782 : en:Chapter 14
01:30:56.451 : en:Chapter 15
01:36:50.888 : en:Chapter 16

Download
Для скачивания .torrent файлов необходима регистрация
Сайт не распространяет и не хранит электронные версии произведений, а лишь предоставляет доступ к создаваемому пользователями каталогу ссылок на торрент-файлы, которые содержат только списки хеш-сумм

Страница 1 из 1

Ответить на тему

   Похожие торренты   Торрент 




tracker_crontracker_cron