Регистрация ·  Логин: Пароль: Запомнить   · Забыли пароль?




Ответить на тему
Статистика раздачи
Размер: 1.61 ГБ | Зарегистрирован: 13 окт 2020, 01:43 | .torrent скачан: 0 раз(а), DHT: [ 0 ] раз(а)
Сидеров: [ 0  | 0 байт/сек ]   Личеров: [ 0  | 0 байт/сек ]   DHT: [ 0 / 0 ]
Автор Сообщение

Модератор

С нами: 2 года 5 месяцев
Сообщения: 3401
Россия

Сообщение 13 окт 2020, 01:43 

[Цитировать]

Спаси себя сам! / Save Yourselves!

Информация о фильме:
Название: Спаси себя сам!
Оригинальное название: Save Yourselves!
Год выхода: 2020
Жанр: Фантастика, комедия
Режиссер: Алекс Хьюстон Фишер, Элинор Уилсон
В ролях: Сунита Мани, Джон Рейнольдс, Бен Синклер, Джон Ерли, Джо Файерстоун, Гари Ричардсон, Джоанна Дэй, Зенобия Шрофф, Эми Седарис, Стивен Кёпфер
Описание: Современная пара из Бруклина Джек и Су, как и многие из их друзей, зависят от технологий и не могут выпустить телефоны из рук. Они решают пожить неделю в изолированном доме в лесу, отключают телефоны и какое-то время наслаждаются гармонией с природой. Но вскоре выясняется, что Земля подверглась инопланетному вторжению.

Страна: США
Студия: Keshet Studios, Last Rodeo Studios, Washington Square Films
Продолжительность: 01:33:56
Перевод: Профессиональный (многоголосый, закадровый) - iTunes

Информация о файле:
Кодек: AVC
Формат: MKV
Качество: HDRip-AVC
Видео: MPEG-4 AVC, 1024x554 (1.85:1), 23.976 fps, 2072 kbps, 0.152
Аудио RU: AC3, 6 ch, 48 kHz, 384 kbps
Субтитры: Русские (Full), украинские (Full), английские
Навигация по главам: Есть


General
Unique ID : 179458647867135168584690104862004221481 (0x87027A767FD2F652E111551889A81629)
Complete name : D:uTorrentРипы_от_wolf1245_MediaBitSave.Yourselves.2020 wolf1245 & MediaBit.mkv
Format : Matroska
Format version : Version 4
File size : 1.61 GiB
Duration : 1 h 33 min
Overall bit rate : 2 458 kb/s
Movie name : Save Yourselves 2020 from wolf1245 & MediaBit
Encoded date : UTC 2020-10-06 18:05:29
Writing application : mkvmerge v51.0.0 ('I Wish') 64-bit
Writing library : libebml v1.4.0 + libmatroska v1.6.2
Video
ID : 1
Format : AVC
Format/Info : Advanced Video Codec
Format profile : [email protected]
Format settings : CABAC / 12 Ref Frames
Format settings, CABAC : Yes
Format settings, Reference frames : 12 frames
Codec ID : V_MPEG4/ISO/AVC
Duration : 1 h 33 min
Bit rate : 2 072 kb/s
Width : 1 024 pixels
Height : 554 pixels
Display aspect ratio : 1.85:1
Frame rate mode : Constant
Frame rate : 23.976 (24000/1001) FPS
Color space : YUV
Chroma subsampling : 4:2:0
Bit depth : 8 bits
Scan type : Progressive
Bits/(Pixel*Frame) : 0.152
Stream size : 1.36 GiB (84%)
Title : wolf1245 & MediaBit
Writing library : x264 core 157 r2958 57baac4
Encoding settings : cabac=1 / ref=12 / deblock=1:-3:-3 / analyse=0x3:0x133 / me=umh / subme=11 / psy=1 / psy_rd=1.02:0.06 / mixed_ref=1 / me_range=48 / chroma_me=1 / trellis=2 / 8x8dct=1 / cqm=0 / deadzone=21,11 / fast_pskip=0 / chroma_qp_offset=-3 / threads=10 / lookahead_threads=2 / sliced_threads=0 / nr=0 / decimate=0 / interlaced=0 / bluray_compat=0 / constrained_intra=0 / bframes=12 / b_pyramid=2 / b_adapt=2 / b_bias=0 / direct=3 / weightb=1 / open_gop=0 / weightp=2 / keyint=240 / keyint_min=24 / scenecut=40 / intra_refresh=0 / rc_lookahead=60 / rc=2pass / mbtree=0 / bitrate=2072 / ratetol=1.0 / qcomp=0.60 / qpmin=0 / qpmax=69 / qpstep=4 / cplxblur=20.0 / qblur=0.5 / vbv_maxrate=50000 / vbv_bufsize=62500 / nal_hrd=none / filler=0 / ip_ratio=1.40 / pb_ratio=1.30 / aq=2:0.90
Language : English
Default : Yes
Forced : No
Color range : Limited
Color primaries : BT.709
Transfer characteristics : BT.709
Matrix coefficients : BT.709
Audio
ID : 2
Format : AC-3
Format/Info : Audio Coding 3
Commercial name : Dolby Digital
Codec ID : A_AC3
Duration : 1 h 33 min
Bit rate mode : Constant
Bit rate : 384 kb/s
Channel(s) : 6 channels
Channel layout : L R C LFE Ls Rs
Sampling rate : 48.0 kHz
Frame rate : 31.250 FPS (1536 SPF)
Compression mode : Lossy
Stream size : 258 MiB (16%)
Title : iTunes
Language : Russian
Service kind : Complete Main
Default : Yes
Forced : Yes
Text #1
ID : 3
Format : UTF-8
Codec ID : S_TEXT/UTF8
Codec ID/Info : UTF-8 Plain Text
Duration : 1 h 32 min
Bit rate : 97 b/s
Count of elements : 1302
Stream size : 66.2 KiB (0%)
Title : Full [iTunes]
Language : Russian
Default : No
Forced : No
Text #2
ID : 4
Format : UTF-8
Codec ID : S_TEXT/UTF8
Codec ID/Info : UTF-8 Plain Text
Duration : 1 h 32 min
Bit rate : 104 b/s
Count of elements : 1324
Stream size : 70.8 KiB (0%)
Title : Full [iTunes]
Language : Ukrainian
Default : No
Forced : No
Text #3
ID : 5
Format : UTF-8
Codec ID : S_TEXT/UTF8
Codec ID/Info : UTF-8 Plain Text
Duration : 1 h 29 min
Bit rate : 65 b/s
Count of elements : 1296
Stream size : 42.7 KiB (0%)
Title : Full
Language : English
Default : No
Forced : No
Text #4
ID : 6
Format : UTF-8
Codec ID : S_TEXT/UTF8
Codec ID/Info : UTF-8 Plain Text
Duration : 1 h 32 min
Bit rate : 72 b/s
Count of elements : 1703
Stream size : 49.2 KiB (0%)
Title : SDH
Language : English
Default : No
Forced : No
Menu
00:00:00.000 : :Chapter 1
00:05:14.063 : :Chapter 2
00:10:38.095 : :Chapter 3
00:14:28.701 : :Chapter 4
00:20:34.566 : :Chapter 5
00:23:35.872 : :Chapter 6
00:28:41.594 : :Chapter 7
00:31:34.976 : :Chapter 8
00:37:46.514 : :Chapter 9
00:42:27.795 : :Chapter 10
00:47:54.288 : :Chapter 11
00:52:49.791 : :Chapter 12
00:57:17.642 : :Chapter 13
00:59:33.736 : :Chapter 14
01:04:16.769 : :Chapter 15
01:10:22.468 : :Chapter 16
01:15:38.784 : :Chapter 17
01:22:55.887 : :Chapter 18
01:25:56.693 : :Chapter 19
01:30:59.704 : :Chapter 20

Релиз от: & &


Download
Для скачивания .torrent файлов необходима регистрация
Сайт не распространяет и не хранит электронные версии произведений, а лишь предоставляет доступ к создаваемому пользователями каталогу ссылок на торрент-файлы, которые содержат только списки хеш-сумм

Страница 1 из 1

Ответить на тему

   Похожие торренты   Торрент 




cron