Регистрация ·  Логин: Пароль: Запомнить   · Забыли пароль?




Ответить на тему
Статистика раздачи
Размер: 24.62 ГБ | Зарегистрирован: 13 окт 2020, 01:42 | .torrent скачан: 0 раз(а), DHT: [ 0 ] раз(а)
Сидеров: [ 0  | 0 байт/сек ]   Личеров: [ 0  | 0 байт/сек ]   DHT: [ 0 / 0 ]
Автор Сообщение

Модератор

С нами: 2 года 4 месяца
Сообщения: 3361
Россия

Сообщение 13 окт 2020, 01:42 

[Цитировать]


Информация о фильме
Название: Спаси себя сам!
Оригинальное название: Save Yourselves!
Год выхода: 2020
Жанр: Фантастика, комедия
Режиссер: Алекс Хьюстон Фишер, Элинор Уилсон
В ролях: Сунита Мани, Джон Рейнольдс, Бен Синклер, Джон Ерли, Джо Файерстоун, Гари Ричардсон, Джоанна Дэй, Зенобия Шрофф, Эми Седарис, Стивен Кёпфер



О фильме: Современная пара из Бруклина Джек и Су, как и многие из их друзей, зависят от технологий и не могут выпустить телефоны из рук. Они решают пожить неделю в изолированном доме в лесу, отключают телефоны и какое-то время наслаждаются гармонией с природой. Но вскоре выясняется, что Земля подверглась инопланетному вторжению.

Страна: США
Студия: Keshet Studios, Last Rodeo Studios, Washington Square Films
Продолжительность: 01:33:56
Перевод: Профессиональный многоголосый | iTunes

Качество: BDRemux 1080p
Видео: MPEG-4 AVC, 1920x1080, 33.9 Mbit/s, 23.976 fps
Аудио #01: 48 kHz, AC3, 5.1, 384 Kbps | iTunes | RUS |
Аудио #02: 48 kHz, DTS-HD MA, 5.1, 3279 Kbps | Оригинал | ENG |
Субтитры: Русские (Full), украинские (Full), английские



General
Unique ID : 86873185593931481522492324088511547382 (0x415B2ABD3BA51A2A674C454931A147F6)
Complete name : D:Video111Save.Yourselves.2020.BDREMUX.1080p.seleZen.mkv
Format : Matroska
Format version : Version 4
File size : 24.6 GiB
Duration : 1 h 33 min
Overall bit rate mode : Variable
Overall bit rate : 37.5 Mb/s
Movie name : Save Yourselves 2020 from селезень
Encoded date : UTC 2020-10-06 10:56:42
Writing application : mkvmerge v40.0.0 ('Old Town Road + Pony') 64-bit
Writing library : libebml v1.3.9 + libmatroska v1.5.2

Video
ID : 1
Format : AVC
Format/Info : Advanced Video Codec
Format profile : [email protected]
Format settings : CABAC / 4 Ref Frames
Format settings, CABAC : Yes
Format settings, Reference : 4 frames
Codec ID : V_MPEG4/ISO/AVC
Duration : 1 h 33 min
Bit rate mode : Variable
Bit rate : 33.9 Mb/s
Maximum bit rate : 37.0 Mb/s
Width : 1 920 pixels
Height : 1 080 pixels
Display aspect ratio : 16:9
Frame rate mode : Constant
Frame rate : 23.976 (24000/1001) FPS
Color space : YUV
Chroma subsampling : 4:2:0
Bit depth : 8 bits
Scan type : Progressive
Bits/(Pixel*Frame) : 0.681
Stream size : 22.2 GiB (90%)
Language : English
Default : Yes
Forced : No

Audio #1
ID : 2
Format : AC-3
Format/Info : Audio Coding 3
Commercial name : Dolby Digital
Codec ID : A_AC3
Duration : 1 h 33 min
Bit rate mode : Constant
Bit rate : 384 kb/s
Channel(s) : 6 channels
Channel layout : L R C LFE Ls Rs
Sampling rate : 48.0 kHz
Frame rate : 31.250 FPS (1536 SPF)
Compression mode : Lossy
Stream size : 258 MiB (1%)
Title : iTunes
Language : Russian
Service kind : Complete Main
Default : Yes
Forced : Yes

Audio #2
ID : 3
Format : DTS XLL
Format/Info : Digital Theater Systems
Commercial name : DTS-HD Master Audio
Codec ID : A_DTS
Duration : 1 h 33 min
Bit rate mode : Variable
Bit rate : 3 279 kb/s
Channel(s) : 6 channels
Channel layout : C L R Ls Rs LFE
Sampling rate : 48.0 kHz
Frame rate : 93.750 FPS (512 SPF)
Bit depth : 24 bits
Compression mode : Lossless
Stream size : 2.15 GiB (9%)
Title : Original
Language : English
Default : No
Forced : No

Text #1
ID : 4
Format : UTF-8
Codec ID : S_TEXT/UTF8
Codec ID/Info : UTF-8 Plain Text
Duration : 1 h 32 min
Bit rate : 97 b/s
Count of elements : 1302
Stream size : 66.2 KiB (0%)
Title : Full [iTunes]
Language : Russian
Default : No
Forced : No

Text #2
ID : 5
Format : UTF-8
Codec ID : S_TEXT/UTF8
Codec ID/Info : UTF-8 Plain Text
Duration : 1 h 32 min
Bit rate : 104 b/s
Count of elements : 1324
Stream size : 70.8 KiB (0%)
Title : Full [iTunes]
Language : Ukrainian
Default : No
Forced : No

Text #3
ID : 6
Format : UTF-8
Codec ID : S_TEXT/UTF8
Codec ID/Info : UTF-8 Plain Text
Duration : 1 h 29 min
Bit rate : 65 b/s
Count of elements : 1296
Stream size : 42.7 KiB (0%)
Title : Full
Language : English
Default : No
Forced : No

Text #4
ID : 7
Format : UTF-8
Codec ID : S_TEXT/UTF8
Codec ID/Info : UTF-8 Plain Text
Duration : 1 h 32 min
Bit rate : 72 b/s
Count of elements : 1703
Stream size : 49.2 KiB (0%)
Title : SDH
Language : English
Default : No
Forced : No

Menu
00:00:00.000 : en:Chapter 1
00:05:14.063 : en:Chapter 2
00:10:38.095 : en:Chapter 3
00:14:28.701 : en:Chapter 4
00:20:34.566 : en:Chapter 5
00:23:35.872 : en:Chapter 6
00:28:41.594 : en:Chapter 7
00:31:34.976 : en:Chapter 8
00:37:46.514 : en:Chapter 9
00:42:27.795 : en:Chapter 10
00:47:54.288 : en:Chapter 11
00:52:49.791 : en:Chapter 12
00:57:17.642 : en:Chapter 13
00:59:33.736 : en:Chapter 14
01:04:16.769 : en:Chapter 15
01:10:22.468 : en:Chapter 16
01:15:38.784 : en:Chapter 17
01:22:55.887 : en:Chapter 18
01:25:56.693 : en:Chapter 19
01:30:59.704 : en:Chapter 20


Релиз: Присоединяйся к:


Download
Для скачивания .torrent файлов необходима регистрация
Сайт не распространяет и не хранит электронные версии произведений, а лишь предоставляет доступ к создаваемому пользователями каталогу ссылок на торрент-файлы, которые содержат только списки хеш-сумм

Страница 1 из 1

Ответить на тему

   Похожие торренты   Торрент 




tracker_crontracker_cron