Регистрация ·  Логин: Пароль: Запомнить   · Забыли пароль?




Ответить на тему
Статистика раздачи
Размер: 1.08 ГБ | Зарегистрирован: 13 окт 2020, 01:42 | .torrent скачан: 0 раз(а), DHT: [ 914 ] раз(а)
Сидеров: [ 117  | 0 байт/сек ]   Личеров: [ 6  | 0 байт/сек ]   DHT: [ 117 / 6 ]
Автор Сообщение

Модератор

С нами: 2 года 4 месяца
Сообщения: 3361
Россия

Сообщение 13 окт 2020, 01:42 

[Цитировать]


Информация о фильме
Название: Сорвать куш
Оригинальное название: Paydirt
Год выхода: 2020
Жанр: Триллер, криминал
Режиссер: Кристиан Сесма
В ролях: Люк Госс, Вэл Килмер, Майк Хаттон, Пол Слоун, Ник Валлелонга, Мирта Мишель, Вероника Боузман, Мюриэлль Телио, Мэри Кристина Браун, Винс ДеКоста

О фильме:
5 лет назад управление по борьбе с наркотиками устроило облаву на картель Синалоа. Искали деньги от продажи наркотиков, но нашли лишь Дэмиана Брукса. Где-то в пустыне закопаны миллионы долларов, и теперь, выйдя из тюрьмы и собрав старую команду, Дэмиан собирается найти их. Но не он один желает сорвать куш. Гонка за деньгами началась. Правила просты: не попадись, похорони прошлое, найди бабло.



Страна: США
Студия: Octane Entertainment, Seskri Produktionz, Ton of Hats
Продолжительность: 01:25:12
Перевод: Дублированный | iTunes
Субтитры: Русские (хардсаб на испанскую речь)

Файл
Формат: Matroska
Качество: WEB-DLRip-AVC
Видео: 960x400 at 24.000 fps, [email protected], ~1431 kbps, 0.155 bpp
Аудио: AC3, 6 ch, ~384 kbps - | Русский | -

***Релиз от: -=DoMiNo=-

x264 [info]: frame I:1042 Avg QP:17.03 size: 39191
x264 [info]: frame P:32641 Avg QP:18.41 size: 15018
x264 [info]: frame B:89005 Avg QP:20.06 size: 4166

General
Format : Matroska
Format version : Version 4
File size : 1.08 GiB
Duration : 1 h 25 min
Overall bit rate : 1 810 kb/s
Movie name : Сорвать куш.(2020).WEB-DLRip-AVC.[-=DoMiNo=-]
Encoded date : UTC 2020-10-06 09:18:28
Writing application : mkvmerge v8.3.0 ('Over the Horizon') 64bit
Writing library : libebml v1.3.1 + libmatroska v1.4.2
Cover : Yes
Attachments : Cover.jpg / Cover 2.jpg

Video
ID : 1
Format : AVC
Format/Info : Advanced Video Codec
Format profile : [email protected]
Format settings : CABAC / 12 Ref Frames
Format settings, CABAC : Yes
Format settings, Reference : 12 frames
Codec ID : V_MPEG4/ISO/AVC
Duration : 1 h 25 min
Bit rate : 1 431 kb/s
Width : 960 pixels
Height : 400 pixels
Display aspect ratio : 2.40:1
Frame rate mode : Constant
Frame rate : 24.000 FPS
Color space : YUV
Chroma subsampling : 4:2:0
Bit depth : 8 bits
Scan type : Progressive
Bits/(Pixel*Frame) : 0.155
Stream size : 868 MiB (79%)
Title : -=DoMiNo=-
Writing library : x264 core 161 r3018 db0d417
Encoding settings : cabac=1 / ref=12 / deblock=1:-1:-1 / analyse=0x3:0x133 / me=umh / subme=10 / psy=1 / psy_rd=1.00:0.20 / mixed_ref=1 / me_range=32 / chroma_me=1 / trellis=2 / 8x8dct=1 / cqm=0 / deadzone=21,11 / fast_pskip=0 / chroma_qp_offset=-3 / threads=6 / lookahead_threads=1 / sliced_threads=0 / nr=0 / decimate=0 / interlaced=0 / bluray_compat=0 / constrained_intra=0 / bframes=12 / b_pyramid=2 / b_adapt=2 / b_bias=0 / direct=3 / weightb=1 / open_gop=0 / weightp=2 / keyint=250 / keyint_min=24 / scenecut=40 / intra_refresh=0 / rc=2pass / mbtree=0 / bitrate=1431 / ratetol=1.0 / qcomp=0.65 / qpmin=0 / qpmax=69 / qpstep=4 / cplxblur=20.0 / qblur=0.5 / ip_ratio=1.40 / pb_ratio=1.30 / aq=3:1.00
Language : English
Default : Yes
Forced : No
Color range : Limited
Color primaries : BT.709
Transfer characteristics : BT.709
Matrix coefficients : BT.709

Audio
ID : 2
Format : AC-3
Format/Info : Audio Coding 3
Commercial name : Dolby Digital
Codec ID : A_AC3
Duration : 1 h 25 min
Bit rate mode : Constant
Bit rate : 384 kb/s
Channel(s) : 6 channels
Channel layout : L R C LFE Ls Rs
Sampling rate : 48.0 kHz
Frame rate : 31.250 FPS (1536 SPF)
Compression mode : Lossy
Stream size : 234 MiB (21%)
Title : [DUB] DD 5.1 @ 384 kbps (iTunes)
Language : Russian
Service kind : Complete Main
Default : Yes
Forced : Yes

Menu
00:00:00.000 : en:Глава 1
00:08:22.750 : en:Глава 2
00:15:11.791 : en:Глава 3
00:21:10.707 : en:Глава 4
00:29:34.373 : en:Глава 5
00:35:46.331 : en:Глава 6
00:41:10.206 : en:Глава 7
00:47:36.831 : en:Глава 8
00:53:22.872 : en:Глава 9
00:58:26.205 : en:Глава 10
01:04:36.496 : en:Глава 11
01:13:45.912 : en:Глава 12

Download
Для скачивания .torrent файлов необходима регистрация
Сайт не распространяет и не хранит электронные версии произведений, а лишь предоставляет доступ к создаваемому пользователями каталогу ссылок на торрент-файлы, которые содержат только списки хеш-сумм

Страница 1 из 1

Ответить на тему

   Похожие торренты   Торрент 




tracker_crontracker_cron