Регистрация ·  Логин: Пароль: Запомнить   · Забыли пароль?




Ответить на тему
Статистика раздачи
Размер: 15.08 ГБ | Зарегистрирован: 13 окт 2020, 01:42 | .torrent скачан: 0 раз(а), DHT: [ 15620 ] раз(а)
Сидеров: [ 5  | 0 байт/сек ]   Личеров: [ 1  | 0 байт/сек ]   DHT: [ 5 / 1 ]
Автор Сообщение

Модератор

С нами: 2 года 4 месяца
Сообщения: 3361
Россия

Сообщение 13 окт 2020, 01:42 

[Цитировать]


Информация о фильме
Название: Хищные воды: Западня / Тёмная бездна
Оригинальное название: Black Water: Abyss
Год выхода: 2020
Жанр: Ужасы, боевик, драма
Режиссер: Эндрю Трауки
В ролях: Джессика МакНэми, Люк Митчелл, Амали Голден, Бенджамин Хотжес, Энтони Шарп, Луис Тосио Окада, Руми Кикути



О фильме: В центре сюжета окажется пятёрка искателей приключений, который отправляются в Австралию. Там они планируют отыскать тайную пещеру, а заодно весело провести время. Однако внезапно природа начинает бунтовать, посылая путникам опасное препятствие, и обратный путь превращается в игру на выживание.

Страна: Австралия, США
Студия: Cornerstone Pictures, ProdigyMovies, Thrills & Spills
Продолжительность: 01:38:39
Перевод: Дублированный | iTunes

Качество: BDRemux 1080p
Видео: MPEG-4 AVC, 1920x1080, 19.7 Mbit/s, 23.976 fps
Аудио #01: 48 kHz, AC3, 5.1, 384 Kbps | iTunes | RUS |
Аудио #02: 48 kHz, DTS-HD MA, 5.1, 1847 Kbps | Оригинал | ENG |
Субтитры: Русские (Full), английские



General
Unique ID : 231006483417663297806383433956886764392 (0xADCA3AF9EEB78E838163389BE686DB68)
Complete name : D:Video111Black.Water.Abyss.2020.BDREMUX.1080p.seleZen.mkv
Format : Matroska
Format version : Version 4
File size : 15.1 GiB
Duration : 1 h 38 min
Overall bit rate mode : Variable
Overall bit rate : 21.9 Mb/s
Movie name : Black Water Abyss 2020 from селезень
Encoded date : UTC 2020-10-06 03:33:24
Writing application : mkvmerge v40.0.0 ('Old Town Road + Pony') 64-bit
Writing library : libebml v1.3.9 + libmatroska v1.5.2

Video
ID : 1
Format : AVC
Format/Info : Advanced Video Codec
Format profile : [email protected]
Format settings : CABAC / 4 Ref Frames
Format settings, CABAC : Yes
Format settings, Reference : 4 frames
Codec ID : V_MPEG4/ISO/AVC
Duration : 1 h 38 min
Bit rate mode : Variable
Bit rate : 19.7 Mb/s
Maximum bit rate : 38.0 Mb/s
Width : 1 920 pixels
Height : 1 080 pixels
Display aspect ratio : 16:9
Frame rate mode : Constant
Frame rate : 23.976 (24000/1001) FPS
Color space : YUV
Chroma subsampling : 4:2:0
Bit depth : 8 bits
Scan type : Progressive
Bits/(Pixel*Frame) : 0.395
Stream size : 13.5 GiB (90%)
Language : English
Default : Yes
Forced : No

Audio #1
ID : 2
Format : AC-3
Format/Info : Audio Coding 3
Commercial name : Dolby Digital
Codec ID : A_AC3
Duration : 1 h 38 min
Bit rate mode : Constant
Bit rate : 384 kb/s
Channel(s) : 6 channels
Channel layout : L R C LFE Ls Rs
Sampling rate : 48.0 kHz
Frame rate : 31.250 FPS (1536 SPF)
Compression mode : Lossy
Stream size : 271 MiB (2%)
Title : iTunes
Language : Russian
Service kind : Complete Main
Default : Yes
Forced : Yes

Audio #2
ID : 3
Format : DTS XLL
Format/Info : Digital Theater Systems
Commercial name : DTS-HD Master Audio
Codec ID : A_DTS
Duration : 1 h 38 min
Bit rate mode : Variable
Bit rate : 1 847 kb/s
Channel(s) : 6 channels
Channel layout : C L R Ls Rs LFE
Sampling rate : 48.0 kHz
Frame rate : 93.750 FPS (512 SPF)
Bit depth : 16 bits
Compression mode : Lossless
Stream size : 1.27 GiB (8%)
Title : Original
Language : English
Default : No
Forced : No

Text #1
ID : 4
Format : UTF-8
Codec ID : S_TEXT/UTF8
Codec ID/Info : UTF-8 Plain Text
Duration : 1 h 33 min
Bit rate : 34 b/s
Count of elements : 902
Stream size : 23.8 KiB (0%)
Title : Full
Language : Russian
Default : No
Forced : No

Text #2
ID : 5
Format : UTF-8
Codec ID : S_TEXT/UTF8
Codec ID/Info : UTF-8 Plain Text
Duration : 1 h 33 min
Bit rate : 23 b/s
Count of elements : 743
Stream size : 16.2 KiB (0%)
Title : Full
Language : English
Default : No
Forced : No

Text #3
ID : 6
Format : UTF-8
Codec ID : S_TEXT/UTF8
Codec ID/Info : UTF-8 Plain Text
Duration : 1 h 37 min
Bit rate : 28 b/s
Count of elements : 984
Stream size : 20.5 KiB (0%)
Title : SDH
Language : English
Default : No
Forced : No

Menu
00:00:00.000 : en:Chapter 01
00:06:09.744 : en:Chapter 02
00:12:47.225 : en:Chapter 03
00:19:28.959 : en:Chapter 04
00:24:02.316 : en:Chapter 05
00:29:15.170 : en:Chapter 06
00:37:25.326 : en:Chapter 07
00:43:09.003 : en:Chapter 08
00:49:28.924 : en:Chapter 09
00:55:25.989 : en:Chapter 10
01:01:00.365 : en:Chapter 11
01:08:11.212 : en:Chapter 12
01:15:20.766 : en:Chapter 13
01:21:24.546 : en:Chapter 14
01:26:50.747 : en:Chapter 15
01:34:49.517 : en:Chapter 16


Релиз: Присоединяйся к:


Download
Для скачивания .torrent файлов необходима регистрация
Сайт не распространяет и не хранит электронные версии произведений, а лишь предоставляет доступ к создаваемому пользователями каталогу ссылок на торрент-файлы, которые содержат только списки хеш-сумм

Страница 1 из 1

Ответить на тему

   Похожие торренты   Торрент 




tracker_crontracker_cron