Регистрация ·  Логин: Пароль: Запомнить   · Забыли пароль?




Ответить на тему
Статистика раздачи
Размер: 2.94 ГБ | Зарегистрирован: 13 окт 2020, 01:41 | .torrent скачан: 0 раз(а), DHT: [ 6912 ] раз(а)
Сидеров: [ 84  | 0 байт/сек ]   Личеров: [ 1  | 0 байт/сек ]   DHT: [ 84 / 1 ]
Автор Сообщение

Модератор

С нами: 2 года 5 месяцев
Сообщения: 3401
Россия

Сообщение 13 окт 2020, 01:41 

[Цитировать]


Информация о фильме
Название: Сорвать куш
Оригинальное название: Paydirt
Год выхода: 2020
Жанр: Триллер, криминал
Режиссер: Кристиан Сесма
В ролях: Люк Госс, Вэл Килмер, Майк Хаттон, Пол Слоун, Ник Валлелонга, Мирта Мишель, Вероника Боузман, Мюриэлль Телио, Мэри Кристина Браун, Винс ДеКоста

О фильме: 5 лет назад управление по борьбе с наркотиками устроило облаву на картель Синалоа. Искали деньги от продажи наркотиков, но нашли лишь Дэмиана Брукса. Где-то в пустыне закопаны миллионы долларов, и теперь, выйдя из тюрьмы и собрав старую команду, Дэмиан собирается найти их. Но не он один желает сорвать куш. Гонка за деньгами началась. Правила просты: не попадись, похорони прошлое, найди бабло.



Страна: США
Студия: Octane Entertainment, Seskri Produktionz, Ton of Hats
Продолжительность: 01:25:12
Перевод: Дублированный | iTunes

Файл
Качество: WEB-DL 1080p
Контейнер: MKV
Видео: MPEG-4 AVC, 1920x800, 4549 kbps, 24.000 fps
Аудио: Russian: АС3, 6 ch, 48 kHz, 384 kbps - DUB, iTunes
Субтитры: Русские (хардсаб на испанскую речь)

Релиз от:


General
Unique ID : 108363108160282256879778885555936950297 (0x5185F9B988BC44E2D695B5990CA9F819)
Complete name : PAYDIRT_2020_WEB-DL_1080p-BLUEBIRD.mkv
Format : Matroska
Format version : Version 4
File size : 2.94 GiB
Duration : 1 h 25 min
Overall bit rate : 4 935 kb/s
Encoded date : UTC 2020-10-04 18:19:33
Writing application : mkvmerge v43.0.0 ('The Quartermaster') 64-bit
Writing library : libebml v1.3.10 + libmatroska v1.5.2
Cover : Yes
Attachments : cover.jpg

Video
ID : 1
Format : AVC
Format/Info : Advanced Video Codec
Format profile : [email protected]
Format settings : CABAC / 5 Ref Frames
Format settings, CABAC : Yes
Format settings, Reference : 5 frames
Codec ID : V_MPEG4/ISO/AVC
Duration : 1 h 25 min
Bit rate : 4 549 kb/s
Width : 1 920 pixels
Height : 800 pixels
Display aspect ratio : 2.40:1
Frame rate mode : Constant
Frame rate : 24.000 FPS
Color space : YUV
Chroma subsampling : 4:2:0
Bit depth : 8 bits
Scan type : Progressive
Bits/(Pixel*Frame) : 0.123
Stream size : 2.71 GiB (92%)
Language : English
Default : Yes
Forced : No
Color range : Limited
Color primaries : BT.709
Transfer characteristics : BT.709
Matrix coefficients : BT.709

Audio
ID : 2
Format : AC-3
Format/Info : Audio Coding 3
Commercial name : Dolby Digital
Codec ID : A_AC3
Duration : 1 h 25 min
Bit rate mode : Constant
Bit rate : 384 kb/s
Channel(s) : 6 channels
Channel layout : L R C LFE Ls Rs
Sampling rate : 48.0 kHz
Frame rate : 31.250 FPS (1536 SPF)
Bit depth : 16 bits
Compression mode : Lossy
Stream size : 234 MiB (8%)
Title : [DUB] DD 5.1 @ 384 kbps (iTunes)
Language : Russian
Service kind : Complete Main
Default : Yes
Forced : No

Menu
00:00:00.000 : en:Глава 1
00:08:22.750 : en:Глава 2
00:15:11.791 : en:Глава 3
00:21:10.707 : en:Глава 4
00:29:34.373 : en:Глава 5
00:35:46.331 : en:Глава 6
00:41:10.206 : en:Глава 7
00:47:36.831 : en:Глава 8
00:53:22.872 : en:Глава 9
00:58:26.205 : en:Глава 10
01:04:36.496 : en:Глава 11
01:13:45.912 : en:Глава 12


Download
Для скачивания .torrent файлов необходима регистрация
Сайт не распространяет и не хранит электронные версии произведений, а лишь предоставляет доступ к создаваемому пользователями каталогу ссылок на торрент-файлы, которые содержат только списки хеш-сумм

Страница 1 из 1

Ответить на тему

   Похожие торренты   Торрент