Регистрация ·  Логин: Пароль: Запомнить   · Забыли пароль?




Ответить на тему
Статистика раздачи
Размер: 5.61 ГБ | Зарегистрирован: 13 окт 2020, 01:41 | .torrent скачан: 0 раз(а), DHT: [ 1594 ] раз(а)
Сидеров: [ 88  | 0 байт/сек ]   Личеров: [ 10  | 0 байт/сек ]   DHT: [ 88 / 10 ]
Автор Сообщение

Модератор

С нами: 2 года 4 месяца
Сообщения: 3361
Россия

Сообщение 13 окт 2020, 01:41 

[Цитировать]

Информация о фильме
Название: Чужие: Вторжение / Нашествие пришельцев
Оригинальное название: Alien Outbreak
Год выхода: 2020
Жанр: фантастика
Режиссер: Нил Роу
В ролях: Кэти Таунз, Ричи Крейн, Фил Бэйкер, Майкл Терри, Ян Роу, Крис Барникоат, Пегги Сэлмон, Том Менари, Джейсон Коллинз, Аарон Дикинс

О фильме: Небольшой городок оказывается в центре инопланетной атаки, которая сопровождается массовой паникой и загадочными самоубийствами. Отважные полицейские пытаются разгадать тайну. Сможет ли кто-то спастись от уничтожения?



Выпущено: Великобритания / Rendered Pictures
Продолжительность: 01:24:41
Озвучивание: Профессиональное (многоголосое) | iTunes

Файл
Формат: MKV
Качество: WEB-DL 1080p | AMAZON Version
Видео: MPEG-4 AVC, 8319 Kb/s, 1920x800
Аудио #1: Russian: 48 kHz, AC3 Dolby Digital, 3/2 (L, C, R, l, r) + LFE ch, ~384 Kbps | MVO | iTunes
Аудио #2: Ukrainian: 48 kHz, Advanced Audio Codec, 2/0 (L, R) ch, ~160 Kbps | MVO | iTunes
Аудио #3: English: 48 kHz, Enhanced AC3 Dolby Digital, 3/2 (L, C, R, l, r) + LFE ch, ~640 Kbps | Original
Субтитры: English (Full, SDH)
Дополнительно: Сохранены оригинальные чаптеры.

Релиз от: @ BlurayDude

Video
ID: 1
Format: AVC
Format/Info: Advanced Video Codec
Format profile: [email protected]
Format settings: CABAC / 4 Ref Frames
Format settings, CABAC: Yes
Format settings, Reference: 4 frames
Codec ID: V_MPEG4/ISO/AVC
Duration: 1 h 24 min
Bit rate mode: Constant
Bit rate: 8 319 kb/s
Nominal bit rate: 10 000 kb/s
Width: 1 920 pixels
Height: 800 pixels
Display aspect ratio: 2.40:1
Frame rate mode: Constant
Frame rate: 24.000 FPS
Color space: YUV
Chroma subsampling: 4:2:0
Bit depth: 8 bits
Scan type: Progressive
Bits/(Pixel*Frame): 0.226
Stream size: 4.92 GiB (88%)
Title: ALIEN_OUTBREAK_2020_WEB-DL_1080p_AMAZON-BLUEBIRD
Default: Yes
Forced: No
Color range: Limited
Color primaries: BT.709
Transfer characteristics: BT.709
Matrix coefficients: BT.709

Audio #1
ID: 2
Format: AC-3
Format/Info: Audio Coding 3
Commercial name: Dolby Digital
Codec ID: A_AC3
Duration: 1 h 24 min
Bit rate mode: Constant
Bit rate: 384 kb/s
Channel(s): 6 channels
Channel layout: L R C LFE Ls Rs
Sampling rate: 48.0 kHz
Frame rate: 31.250 FPS (1536 SPF)
Compression mode: Lossy
Stream size: 233 MiB (4%)
Title: [MVO] DD 5.1 @ 384 kbps (iTunes)
Language: Russian
Service kind: Complete Main
Default: Yes
Forced: No

Audio #2
ID: 3
Format: AAC LC
Format/Info: Advanced Audio Codec Low Complexity
Codec ID: A_AAC-2
Duration: 1 h 24 min
Bit rate: 122 kb/s
Channel(s): 2 channels
Channel layout: L R
Sampling rate: 44.1 kHz
Frame rate: 43.066 FPS (1024 SPF)
Compression mode: Lossy
Stream size: 74.0 MiB (1%)
Title: [MVO] AAC 2.0 @ 160 kbps (iTunes)
Language: Ukrainian
Default: No
Forced: No

Audio #3
ID: 4
Format: E-AC-3
Format/Info: Enhanced AC-3
Commercial name: Dolby Digital Plus
Codec ID: A_EAC3
Duration: 1 h 24 min
Bit rate mode: Constant
Bit rate: 640 kb/s
Channel(s): 6 channels
Channel layout: L R C LFE Ls Rs
Sampling rate: 48.0 kHz
Frame rate: 31.250 FPS (1536 SPF)
Compression mode: Lossy
Stream size: 388 MiB (7%)
Title: [ORIGINAL] DD+ 5.1 @ 640 kbps (Amazon)
Language: English
Service kind: Complete Main
Default: No
Forced: No

Text #1
ID: 5
Format: UTF-8
Codec ID: S_TEXT/UTF8
Codec ID/Info: UTF-8 Plain Text
Duration: 1 h 21 min
Bit rate: 41 b/s
Count of elements: 886
Stream size: 25.0 KiB (0%)
Title: Full-length
Language: English
Default: No
Forced: No

Text #2
ID: 6
Format: UTF-8
Codec ID: S_TEXT/UTF8
Codec ID/Info: UTF-8 Plain Text
Duration: 1 h 22 min
Bit rate: 49 b/s
Count of elements: 1113
Stream size: 29.8 KiB (0%)
Title: SDH
Language: English
Default: No
Forced: No

Menu
00:00:00.000: en:Глава 1
00:07:45.458: en:Глава 2
00:15:52.874: en:Глава 3
00:22:27.832: en:Глава 4
00:27:53.415: en:Глава 5
00:34:21.956: en:Глава 6
00:39:19.914: en:Глава 7
00:44:54.539: en:Глава 8
00:50:09.372: en:Глава 9
00:55:39.913: en:Глава 10
01:00:17.413: en:Глава 11
01:05:29.621: en:Глава 12
01:09:50.537: en:Глава 13
01:14:04.037: en:Глава 14
01:18:06.037: en:Глава 15

Download
Для скачивания .torrent файлов необходима регистрация
Сайт не распространяет и не хранит электронные версии произведений, а лишь предоставляет доступ к создаваемому пользователями каталогу ссылок на торрент-файлы, которые содержат только списки хеш-сумм

Страница 1 из 1

Ответить на тему

   Похожие торренты   Торрент 




tracker_crontracker_cron