Регистрация ·  Логин: Пароль: Запомнить   · Забыли пароль?




Ответить на тему
Статистика раздачи
Размер: 12.04 ГБ | Зарегистрирован: 13 окт 2020, 01:40 | .torrent скачан: 0 раз(а), DHT: [ 982 ] раз(а)
Сидеров: [ 18  | 0 байт/сек ]   Личеров: [ 1  | 0 байт/сек ]   DHT: [ 18 / 1 ]
Автор Сообщение

Модератор

С нами: 2 года 4 месяца
Сообщения: 3361
Россия

Сообщение 13 окт 2020, 01:40 

[Цитировать]


Информация о фильме
Название: Таинственный сад
Оригинальное название: The Secret Garden
Год выхода: 2020
Жанр: Фэнтези, приключения, семейный
Режиссер: Марк Манден
В ролях: Дикси Эгерикс, Колин Фёрт, Джули Уолтерс, Эдан Хэйхёрст, Амир Уилсон, Айзис Дэвис, Мейв Дермоди, Соня Госвами, Пол Дин-Келли, Энн Лэйси, Руперт Янг, Джемма Пауэлл, Альберт Джаннителли, Абдул Хаким Джой



О фильме: Внезапно осиротевшая девочка Мэри вынуждена переехать в окутанный тайнами особняк своего дяди в Англии. Правилами строго запрещено выходить из своей комнаты и бродить по коридорам огромного дома, но однажды Мэри обнаруживает потайную дверь, ведущую в удивительный мир, где исполняются любые желания – таинственный сад.

Страна: Великобритания, Франция, США, Китай
Студия: Canal+ [fr], Fundamental Films, Ciné, Heyday Films, Studio Canal, STX Films
Продолжительность: 01:40:09
Перевод: Дублированный | iTunes

Качество: BDRip 1080p
Видео: MPEG-4 AVC, 1920x1038, 16.2 Mbit/s, 23.976 fps
Аудио #01: 48 kHz, AC3, 5.1, 384 Kbps | iTunes | RUS |
Аудио #02: 48 kHz, AC3, 5.1, 640 Kbps | Оригинал | ENG |
Субтитры: Русские (Full), английские



General
Unique ID : 80266081569058536929786943839808907239 (0x3C62AF5C3DE52013D477AB35B0E1E7E7)
Complete name : D:Video111The.Secret.Garden.2020.BDRip.1080p.seleZen.mkv
Format : Matroska
Format version : Version 4
File size : 12.0 GiB
Duration : 1 h 40 min
Overall bit rate : 17.2 Mb/s
Movie name : The Secret Garden 2020 from селезень
Encoded date : UTC 2020-10-03 20:14:16
Writing application : mkvmerge v40.0.0 ('Old Town Road + Pony') 64-bit
Writing library : libebml v1.3.9 + libmatroska v1.5.2

Video
ID : 1
Format : AVC
Format/Info : Advanced Video Codec
Format profile : [email protected]
Format settings : CABAC / 4 Ref Frames
Format settings, CABAC : Yes
Format settings, Reference : 4 frames
Codec ID : V_MPEG4/ISO/AVC
Duration : 1 h 40 min
Bit rate : 16.2 Mb/s
Width : 1 920 pixels
Height : 1 038 pixels
Display aspect ratio : 1.85:1
Frame rate mode : Constant
Frame rate : 23.976 (24000/1001) FPS
Color space : YUV
Chroma subsampling : 4:2:0
Bit depth : 8 bits
Scan type : Progressive
Bits/(Pixel*Frame) : 0.339
Stream size : 11.3 GiB (94%)
Title : iFT
Writing library : x264 core 161 r3018+53 ~ Encoded by Mocunaman in Portugal
Encoding settings : cabac=1 / ref=4 / deblock=1:-3:-3 / analyse=0x3:0x113 / me=umh / subme=11 / psy=1 / fade_compensate=0.00 / psy_rd=1.00:0.00 / mixed_ref=1 / me_range=32 / chroma_me=1 / trellis=2 / 8x8dct=1 / cqm=0 / deadzone=21,11 / fast_pskip=0 / chroma_qp_offset=-2 / threads=32 / lookahead_threads=5 / sliced_threads=0 / nr=0 / decimate=0 / interlaced=0 / bluray_compat=0 / constrained_intra=0 / fgo=0 / bframes=8 / b_pyramid=2 / b_adapt=2 / b_bias=0 / direct=3 / weightb=1 / open_gop=0 / weightp=2 / keyint=250 / keyint_min=23 / scenecut=40 / intra_refresh=0 / rc_lookahead=60 / rc=crf / mbtree=0 / crf=18.2000 / qcomp=0.65 / qpmin=0:0:0 / qpmax=69:69:69 / qpstep=4 / vbv_maxrate=62500 / vbv_bufsize=78125 / crf_max=0.0 / nal_hrd=none / filler=0 / ip_ratio=1.30 / pb_ratio=1.20 / aq=3:0.85 / aq-sensitivity=10.00 / aq-factor=1.00:1.00:1.00 / aq2=0 / aq3=0 / zones=3120,5832,crf=17.2/6564,7225,crf=17.2/11929,12265,crf=17.7/13033,16705,crf=17.7/17218,19309,crf=17.2/27350,28718,crf=17.2/28989,31317,crf=17.2/34738,39050,crf=17.2/44929,45481,crf=17.7/51937,52513,crf=17.7/58177,67906,crf=17.2/77544,81600,crf=17.2/82920,85097,crf=17.2/87553,91885,crf=17.7/96662,96950,crf=17.7/102236,102769,crf=17.2/111142,111702,crf=17.2/112446,114217,crf=17.2/118519,120987,crf=17.2/122361,129338,crf=17.2
Language : English
Default : Yes
Forced : No
Color range : Limited
Color primaries : BT.709
Transfer characteristics : BT.709
Matrix coefficients : BT.709

Audio #1
ID : 2
Format : AC-3
Format/Info : Audio Coding 3
Commercial name : Dolby Digital
Codec ID : A_AC3
Duration : 1 h 40 min
Bit rate mode : Constant
Bit rate : 384 kb/s
Channel(s) : 6 channels
Channel layout : L R C LFE Ls Rs
Sampling rate : 48.0 kHz
Frame rate : 31.250 FPS (1536 SPF)
Compression mode : Lossy
Stream size : 275 MiB (2%)
Title : iTunes
Language : Russian
Service kind : Complete Main
Default : Yes
Forced : Yes

Audio #2
ID : 3
Format : AC-3
Format/Info : Audio Coding 3
Commercial name : Dolby Digital
Codec ID : A_AC3
Duration : 1 h 40 min
Bit rate mode : Constant
Bit rate : 640 kb/s
Channel(s) : 6 channels
Channel layout : L R C LFE Ls Rs
Sampling rate : 48.0 kHz
Frame rate : 31.250 FPS (1536 SPF)
Compression mode : Lossy
Stream size : 458 MiB (4%)
Title : Original
Language : English
Service kind : Complete Main
Default : No
Forced : No

Text #1
ID : 4
Format : UTF-8
Codec ID : S_TEXT/UTF8
Codec ID/Info : UTF-8 Plain Text
Duration : 1 h 33 min
Bit rate : 59 b/s
Count of elements : 898
Stream size : 40.7 KiB (0%)
Title : Full
Language : Russian
Default : No
Forced : No

Text #2
ID : 5
Format : UTF-8
Codec ID : S_TEXT/UTF8
Codec ID/Info : UTF-8 Plain Text
Duration : 1 h 32 min
Bit rate : 43 b/s
Count of elements : 1040
Stream size : 29.6 KiB (0%)
Title : SDH
Language : English
Default : No
Forced : No

Menu
00:00:00.000 : en:Chapter 1
00:05:07.140 : en:Chapter 2
00:10:05.480 : en:Chapter 3
00:15:28.803 : en:Chapter 4
00:20:27.810 : en:Chapter 5
00:24:08.864 : en:Chapter 6
00:27:39.032 : en:Chapter 7
00:32:40.458 : en:Chapter 8
00:37:58.568 : en:Chapter 9
00:44:15.903 : en:Chapter 10
00:48:41.961 : en:Chapter 11
00:53:54.231 : en:Chapter 12
00:59:09.296 : en:Chapter 13
01:04:29.324 : en:Chapter 14
01:08:25.601 : en:Chapter 15
01:13:15.266 : en:Chapter 16
01:18:22.907 : en:Chapter 17
01:23:59.451 : en:Chapter 18
01:30:11.072 : en:Chapter 19
01:34:57.525 : en:Chapter 20


Релиз от: Присоединяйся к:


Download
Для скачивания .torrent файлов необходима регистрация
Сайт не распространяет и не хранит электронные версии произведений, а лишь предоставляет доступ к создаваемому пользователями каталогу ссылок на торрент-файлы, которые содержат только списки хеш-сумм

Страница 1 из 1

Ответить на тему

   Похожие торренты   Торрент 




tracker_crontracker_cron