Регистрация ·  Логин: Пароль: Запомнить   · Забыли пароль?




Ответить на тему
Статистика раздачи
Размер: 8.31 ГБ | Зарегистрирован: 13 окт 2020, 01:40 | .torrent скачан: 0 раз(а), DHT: [ 669 ] раз(а)
Сидеров: [ 81  | 0 байт/сек ]   Личеров: [ 15  | 0 байт/сек ]   DHT: [ 81 / 15 ]
Автор Сообщение

Модератор

С нами: 2 года 4 месяца
Сообщения: 3361
Россия

Сообщение 13 окт 2020, 01:40 

[Цитировать]

Информация о фильме
Название: Лесси. Возвращение домой
Оригинальное название: Lassie - Eine abenteuerliche Reise
Год выхода: 2020
Жанр: драма, приключения, семейный
Режиссер: Ханно Ольдердиссен
В ролях: Себастьян Беццель, Анна Мария Мюэ, Нико Маришка, Белла Бадинг, Маттиас Хабих, Йохан фон Бюлов, Сина Бьянка Хеншел, Яна Палласке, Юстус фон Донаньи, Кристоф Летковски

О фильме: По стечению обстоятельств молодую колли по имени Лесси разлучают с хозяином и отправляют жить в богатое поместье. Однако Лесси, храня память о своем настоящем друге, сбегает из особняка, чтобы побывать в удивительных местах, завести новых знакомых и даже прокатиться на яхте по дороге домой...



Выпущено: Германия / Warner Bros. Film Productions Germany, Henning Ferber Produktion, Scoring Berlin
Продолжительность: 01:36:24
Озвучивание: Дублированное | iTunes

Файл
Формат: MKV
Качество: BDRip 1080p
Видео: MPEG-4 AVC, 11.3 Mb/s, 1920x804
Аудио #1: Russian: 48 kHz, AC3 Dolby Digital, 3/2 (L, C, R, l, r) + LFE ch, ~384 Kbps | iTunes
Аудио #2: German: 48 kHz, AC3 Dolby Digital, 3/2 (L, C, R, l, r) + LFE ch, ~640 Kbps | Original
Субтитры: Russian (Full), English, German
Дополнительно: Сохранены оригинальные чаптеры.

Релиз группы: &

Complete name : Lessi.Vozvraschenie.domoy.2020.1080p.BluRay.ELEKTRI4KA.UNIONGANG.mkv
Format : Matroska
Format version : Version 4 / Version 2
File size : 8.31 GiB
Duration : 1 h 36 min
Overall bit rate : 12.3 Mb/s
Movie name : .ELEKTRI4KA.UNIONGANG.
Encoded date : UTC 2020-10-03 15:13:22
Writing application : mkvmerge v8.3.0 ('Over the Horizon') 64bit
Writing library : libebml v1.3.1 + libmatroska v1.4.2
Video
ID : 1
Format : AVC
Format/Info : Advanced Video Codec
Format profile : [email protected]
Format settings, CABAC : Yes
Format settings, Reference frames : 5 frames
Codec ID : V_MPEG4/ISO/AVC
Duration : 1 h 36 min
Bit rate : 11.3 Mb/s
Width : 1 920 pixels
Height : 804 pixels
Display aspect ratio : 2.40:1
Frame rate mode : Constant
Frame rate : 23.976 (24000/1001) FPS
Color space : YUV
Chroma subsampling : 4:2:0
Bit depth : 8 bits
Scan type : Progressive
Bits/(Pixel*Frame) : 0.305
Stream size : 7.60 GiB (91%)
Writing library : x264 core 160 r3000 33f9e14
Encoding settings : cabac=1 / ref=5 / deblock=1:-3:-3 / analyse=0x3:0x113 / me=umh / subme=10 / psy=1 / psy_rd=1.05:0.00 / mixed_ref=1 / me_range=32 / chroma_me=1 / trellis=2 / 8x8dct=1 / cqm=0 / deadzone=21, 11 / fast_pskip=0 / chroma_qp_offset=-2 / threads=12 / lookahead_threads=2 / sliced_threads=0 / nr=0 / decimate=0 / interlaced=0 / bluray_compat=0 / constrained_intra=0 / bframes=9 / b_pyramid=2 / b_adapt=2 / b_bias=0 / direct=3 / weightb=1 / open_gop=0 / weightp=2 / keyint=240 / keyint_min=23 / scenecut=40 / intra_refresh=0 / rc_lookahead=50 / rc=2pass / mbtree=0 / bitrate=11299 / ratetol=1.0 / qcomp=0.65 / qpmin=0 / qpmax=69 / qpstep=4 / cplxblur=20.0 / qblur=0.5 / vbv_maxrate=50000 / vbv_bufsize=62500 / nal_hrd=none / filler=0 / ip_ratio=1.30 / pb_ratio=1.20 / aq=1:0.80
Default : Yes
Forced : No
Color range : Limited
Color primaries : BT.709
Transfer characteristics : BT.709
Matrix coefficients : BT.709
Audio #1
ID : 2
Format : AC-3
Format/Info : Audio Coding 3
Mode extension : CM (complete main)
Format settings, Endianness : Big
Codec ID : A_AC3
Duration : 1 h 36 min
Bit rate mode : Constant
Bit rate : 384 kb/s
Channel(s) : 6 channels
Channel positions : Front: L C R, Side: L R, LFE
Sampling rate : 48.0 kHz
Frame rate : 31.250 FPS (1536 spf)
Bit depth : 16 bits
Compression mode : Lossy
Stream size : 265 MiB (3%)
Title : iTunes
Language : Russian
Default : Yes
Forced : Yes
Audio #2
ID : 3
Format : AC-3
Format/Info : Audio Coding 3
Mode extension : CM (complete main)
Format settings, Endianness : Big
Codec ID : A_AC3
Duration : 1 h 36 min
Bit rate mode : Constant
Bit rate : 640 kb/s
Channel(s) : 6 channels
Channel positions : Front: L C R, Side: L R, LFE
Sampling rate : 48.0 kHz
Frame rate : 31.250 FPS (1536 spf)
Bit depth : 16 bits
Compression mode : Lossy
Stream size : 441 MiB (5%)
Language : German
Default : No
Forced : No
Text #1
ID : 4
Format : UTF-8
Codec ID : S_TEXT/UTF8
Codec ID/Info : UTF-8 Plain Text
Duration : 1 h 32 min
Bit rate : 84 b/s
Count of elements : 1099
Stream size : 57.3 KiB (0%)
Title : Full
Language : Russian
Default : Yes
Forced : No
Text #2
ID : 5
Format : PGS
Muxing mode : zlib
Codec ID : S_HDMV/PGS
Codec ID/Info : Picture based subtitle format used on BDs/HD-DVDs
Duration : 1 h 29 min
Bit rate : 15.1 kb/s
Count of elements : 2248
Stream size : 9.73 MiB (0%)
Language : English
Default : No
Forced : No
Text #3
ID : 6
Format : PGS
Muxing mode : zlib
Codec ID : S_HDMV/PGS
Codec ID/Info : Picture based subtitle format used on BDs/HD-DVDs
Duration : 1 h 33 min
Bit rate : 18.8 kb/s
Count of elements : 2816
Stream size : 12.6 MiB (0%)
Language : German
Default : No
Forced : No
Menu
00:00:00.000 : en:00:00:00.000
00:07:57.560 : en:00:07:57.560
00:14:58.898 : en:00:14:58.898
00:25:38.412 : en:00:25:38.412
00:34:07.128 : en:00:34:07.128
00:41:51.759 : en:00:41:51.759
00:49:47.693 : en:00:49:47.693
00:58:28.004 : en:00:58:28.004
01:07:27.794 : en:01:07:27.794
01:15:57.052 : en:01:15:57.052
01:23:46.521 : en:01:23:46.521
01:30:52.197 : en:01:30:52.197

Download
Для скачивания .torrent файлов необходима регистрация
Сайт не распространяет и не хранит электронные версии произведений, а лишь предоставляет доступ к создаваемому пользователями каталогу ссылок на торрент-файлы, которые содержат только списки хеш-сумм

Страница 1 из 1

Ответить на тему

   Похожие торренты   Торрент 




tracker_crontracker_cron