Регистрация ·  Логин: Пароль: Запомнить   · Забыли пароль?




Ответить на тему
Статистика раздачи
Размер: 2.58 ГБ | Зарегистрирован: 13 окт 2020, 01:39 | .torrent скачан: 0 раз(а), DHT: [ 7489 ] раз(а)
Сидеров: [ 4  | 0 байт/сек ]   Личеров: [ 0  | 0 байт/сек ]   DHT: [ 4 / 0 ]
Автор Сообщение

Модератор

С нами: 2 года 5 месяцев
Сообщения: 3401
Россия

Сообщение 13 окт 2020, 01:39 

[Цитировать]


Информация о фильме
Название: Одна
Оригинальное название: Alone
Год выхода: 2020
Жанр: Триллер
Режиссер: Джон Хайамс
В ролях: Джулз Уиллкокс, Марк Менчака, Энтони Хилд, Джонатан Розенталь, Лаура Дуйн, Макс Хаскинс, Шелли Липкин, Бетти Мойер



О фильме: Сюжет фильма рассказывает о девушке Джессике, которая отправляется к родителям, чтобы повидаться с ними, но в пути сталкивается с безжалостным маньяком, который похищает ее. Она умудряется бежать из заточения, но оказывается в непроходимых лесах, с маньяком на хвосте, который устремляется за ней в погоню...

Страна: США
Студия: Mill House Motion Pictures, Paperclip
Продолжительность: 01:37:53
Перевод: Дублированный | iTunes

Качество: WEB-DL 720p
Видео: MPEG-4 AVC, 1280x532, 3001 Kbit/s, 23.976 fps
Аудио #01: 48 kHz, AC3, 5.1, 384 Kbps | iTunes | RUS |
Аудио #02: 48 kHz, AC3, 5.1, 384 Kbps | Оригинал | ENG |
Субтитры: Русские (Full), английские



General
Unique ID : 76473472526920796939179827355006974901 (0x3988414C352B7A5D75B8617D4D62BBB5)
Complete name : D:Video1111Alone.2020.WEB-DL.720p.seleZen.mkv
Format : Matroska
Format version : Version 4
File size : 2.58 GiB
Duration : 1 h 37 min
Overall bit rate : 3 771 kb/s
Movie name : Alone 2020 from селезень
Encoded date : UTC 2020-10-01 21:51:53
Writing application : mkvmerge v40.0.0 ('Old Town Road + Pony') 64-bit
Writing library : libebml v1.3.9 + libmatroska v1.5.2

Video
ID : 1
Format : AVC
Format/Info : Advanced Video Codec
Format profile : [email protected]
Format settings : CABAC / 4 Ref Frames
Format settings, CABAC : Yes
Format settings, Reference : 4 frames
Codec ID : V_MPEG4/ISO/AVC
Duration : 1 h 37 min
Bit rate : 3 001 kb/s
Width : 1 280 pixels
Height : 532 pixels
Display aspect ratio : 2.40:1
Frame rate mode : Constant
Frame rate : 23.976 (24000/1001) FPS
Color space : YUV
Chroma subsampling : 4:2:0
Bit depth : 8 bits
Scan type : Progressive
Bits/(Pixel*Frame) : 0.184
Stream size : 2.05 GiB (80%)
Language : English
Default : Yes
Forced : No

Audio #1
ID : 2
Format : AC-3
Format/Info : Audio Coding 3
Commercial name : Dolby Digital
Codec ID : A_AC3
Duration : 1 h 37 min
Bit rate mode : Constant
Bit rate : 384 kb/s
Channel(s) : 6 channels
Channel layout : L R C LFE Ls Rs
Sampling rate : 48.0 kHz
Frame rate : 31.250 FPS (1536 SPF)
Compression mode : Lossy
Stream size : 269 MiB (10%)
Title : iTunes
Language : Russian
Service kind : Complete Main
Default : Yes
Forced : Yes

Audio #2
ID : 3
Format : AC-3
Format/Info : Audio Coding 3
Commercial name : Dolby Digital
Codec ID : A_AC3
Duration : 1 h 37 min
Bit rate mode : Constant
Bit rate : 384 kb/s
Channel(s) : 6 channels
Channel layout : L R C LFE Ls Rs
Sampling rate : 48.0 kHz
Frame rate : 31.250 FPS (1536 SPF)
Compression mode : Lossy
Stream size : 269 MiB (10%)
Title : Original
Language : English
Service kind : Complete Main
Default : No
Forced : No

Text #1
ID : 4
Format : UTF-8
Codec ID : S_TEXT/UTF8
Codec ID/Info : UTF-8 Plain Text
Duration : 1 h 32 min
Bit rate : 31 b/s
Count of elements : 706
Stream size : 21.2 KiB (0%)
Title : Full
Language : Russian
Default : No
Forced : No

Text #2
ID : 5
Format : UTF-8
Codec ID : S_TEXT/UTF8
Codec ID/Info : UTF-8 Plain Text
Duration : 1 h 29 min
Bit rate : 24 b/s
Count of elements : 564
Stream size : 15.8 KiB (0%)
Title : Full
Language : English
Default : No
Forced : No

Menu
00:00:00.000 : en:On the Road
00:05:33.082 : en:Being Followed
00:11:36.987 : en:Chance Encounter
00:16:52.427 : en:Stalked
00:24:02.314 : en:Captured
00:31:48.113 : en:Captive
00:40:00.522 : en:Escape
00:42:56.864 : en:Hunt Begins
00:48:24.233 : en:Free
00:53:00.383 : en:Assistance
00:59:33.776 : en:Turn of Events
01:03:38.060 : en:All in the Eyes
01:14:04.144 : en:Hunted Becomes the Hunter
01:18:30.659 : en:In Hiding
01:26:09.034 : en:Crash
01:28:29.006 : en:Final Encounter


Релиз: Присоединяйся к:



Download
Для скачивания .torrent файлов необходима регистрация
Сайт не распространяет и не хранит электронные версии произведений, а лишь предоставляет доступ к создаваемому пользователями каталогу ссылок на торрент-файлы, которые содержат только списки хеш-сумм

Страница 1 из 1

Ответить на тему

   Похожие торренты   Торрент