Регистрация ·  Логин: Пароль: Запомнить   · Забыли пароль?




Ответить на тему
Статистика раздачи
Размер: 3.5 ГБ | Зарегистрирован: 13 окт 2020, 01:39 | .torrent скачан: 0 раз(а), DHT: [ 20817 ] раз(а)
Сидеров: [ 307  | 0 байт/сек ]   Личеров: [ 5  | 0 байт/сек ]   DHT: [ 307 / 5 ]
Автор Сообщение

Модератор

С нами: 2 года 4 месяца
Сообщения: 3361
Россия

Сообщение 13 окт 2020, 01:39 

[Цитировать]


Информация о фильме
Название: Пропавшая
Оригинальное название: Alone
Год выхода: 2020
Жанр: Триллер
Режиссер: Джон Хайамс
В ролях: Джулз Уиллкокс, Марк Менчака, Энтони Хилд, Джонатан Розенталь, Лаура Дуйн, Нико Флореска, Макс Хаскинс, Шелли Липкин, Брентон Монтгомери, Бетти Мойер

О фильме: Собираясь в поездку к родителям, Джессика не могла представить, что по пути станет жертвой похищения безжалостным психопатом. Чудом высвободившись из заточения, девушка оказывается одна в дикой местности без еды и воды... с маньяком на хвосте. Её единственный шанс выжить – бежать, не оглядываясь.



Страна: США
Студия: Mill House Motion Pictures, Paperclip
Продолжительность: 01:37:53
Перевод: Дублированный | iTunes

Файл
Качество: WEB-DL 1080p
Контейнер: MKV
Видео: MPEG-4 AVC, 1920x798, 4340 kbps, 23.976 fps
Аудио 1: Russian: АС3, 6 ch, 48 kHz, 384 kbps - DUB, iTunes
Аудио 2: English: AC3, 6 ch, 48 kHz, 384 kbps - Оригинал
Субтитры: Русские (Full), английские

Релиз от:


General
Unique ID : 13900484841091242716832245369126267831 (0xA7522D0E045EE0172D710ACFAAC2BB7)
Complete name : ALONE_2020_WEB-DL_1080p-BLUEBIRD.mkv
Format : Matroska
Format version : Version 4
File size : 3.50 GiB
Duration : 1 h 37 min
Overall bit rate : 5 111 kb/s
Encoded date : UTC 2020-09-30 21:34:13
Writing application : mkvmerge v43.0.0 ('The Quartermaster') 64-bit
Writing library : libebml v1.3.10 + libmatroska v1.5.2
Cover : Yes
Attachments : cover.jpg

Video
ID : 1
Format : AVC
Format/Info : Advanced Video Codec
Format profile : [email protected]
Format settings : CABAC / 5 Ref Frames
Format settings, CABAC : Yes
Format settings, Reference : 5 frames
Codec ID : V_MPEG4/ISO/AVC
Duration : 1 h 37 min
Bit rate : 4 340 kb/s
Width : 1 920 pixels
Height : 798 pixels
Display aspect ratio : 2.40:1
Frame rate mode : Constant
Frame rate : 23.976 (24000/1001) FPS
Color space : YUV
Chroma subsampling : 4:2:0
Bit depth : 8 bits
Scan type : Progressive
Bits/(Pixel*Frame) : 0.118
Stream size : 2.97 GiB (85%)
Language : English
Default : Yes
Forced : No
Color range : Limited
Color primaries : BT.709
Transfer characteristics : BT.709
Matrix coefficients : BT.709

Audio #1
ID : 2
Format : AC-3
Format/Info : Audio Coding 3
Commercial name : Dolby Digital
Codec ID : A_AC3
Duration : 1 h 37 min
Bit rate mode : Constant
Bit rate : 384 kb/s
Channel(s) : 6 channels
Channel layout : L R C LFE Ls Rs
Sampling rate : 48.0 kHz
Frame rate : 31.250 FPS (1536 SPF)
Bit depth : 16 bits
Compression mode : Lossy
Stream size : 269 MiB (8%)
Title : [DUB] DD 5.1 @ 384 kbps (iTunes)
Language : Russian
Service kind : Complete Main
Default : Yes
Forced : No

Audio #2
ID : 3
Format : AC-3
Format/Info : Audio Coding 3
Commercial name : Dolby Digital
Codec ID : A_AC3
Duration : 1 h 37 min
Bit rate mode : Constant
Bit rate : 384 kb/s
Channel(s) : 6 channels
Channel layout : L R C LFE Ls Rs
Sampling rate : 48.0 kHz
Frame rate : 31.250 FPS (1536 SPF)
Bit depth : 16 bits
Compression mode : Lossy
Stream size : 269 MiB (8%)
Title : [ORIGINAL] DD 5.1 @ 384 kbps (iTunes)
Language : English
Service kind : Complete Main
Default : No
Forced : No

Text #1
ID : 4
Format : UTF-8
Codec ID : S_TEXT/UTF8
Codec ID/Info : UTF-8 Plain Text
Duration : 1 h 32 min
Bit rate : 31 b/s
Count of elements : 706
Stream size : 21.2 KiB (0%)
Title : Full-length
Language : Russian
Default : No
Forced : No

Text #2
ID : 5
Format : UTF-8
Codec ID : S_TEXT/UTF8
Codec ID/Info : UTF-8 Plain Text
Duration : 1 h 29 min
Bit rate : 24 b/s
Count of elements : 564
Stream size : 15.8 KiB (0%)
Title : Full-length
Language : English
Default : No
Forced : No

Download
Для скачивания .torrent файлов необходима регистрация
Сайт не распространяет и не хранит электронные версии произведений, а лишь предоставляет доступ к создаваемому пользователями каталогу ссылок на торрент-файлы, которые содержат только списки хеш-сумм

Страница 1 из 1

Ответить на тему

   Похожие торренты   Торрент 




cron
tracker_crontracker_cron