Регистрация ·  Логин: Пароль: Запомнить   · Забыли пароль?




Ответить на тему
Статистика раздачи
Размер: 2.54 ГБ | Зарегистрирован: 13 окт 2020, 01:39 | .torrent скачан: 0 раз(а), DHT: [ 0 ] раз(а)
Сидеров: [ 1  | 0 байт/сек ]   Личеров: [ 1  | 0 байт/сек ]   DHT: [ 1 / 1 ]
Автор Сообщение

Модератор

С нами: 2 года 4 месяца
Сообщения: 3361
Россия

Сообщение 13 окт 2020, 01:39 

[Цитировать]

Информация о фильме
Название: Побег из Претории
Оригинальное название: Escape from Pretoria
Год выхода: 2020
Жанр: Триллер
Режиссер: Фрэнсис Аннан
В ролях: Дэниэл Рэдклифф, Иэн Харт, Даниэль Уэббер, Нэйтан Пейдж, Стивен Хантер, Марк Леонард Винтер, Ратидзо Мамбо, Жанетт Кронин, Дэвид Уилсон, Адам Овадия

О фильме:
Двое борцов за свободу отбывают срок в одной из самых строгих тюрем мира — в «Претории». Вместе с другими узниками они планируют дерзкий и опасный побег. Но придумать план — это только первый шаг. Шаг второй — реализация плана.



Страна: Великобритания, Австралия
Студия: Arclight Films, Spier Films, Premiere Picture
Продолжительность: 01:45:58
Перевод: Дублированный + Профессиональный (многоголосый, закадровый)
Субтитры: Русские форс., полные х 3 (FOCS, MENINSUB, Enigma), английские форс., полные

Файл
Формат: Matroska
Качество: BDRip-AVC [BDRemux 1080p]
Видео: 1168x488 at 23.976 fps, x264, ~2153 kbps, 0.158 bpp
Аудио #01: 48 kHz, AC3, 5.1, 384 Kbps | iTunes | RUS | DUB
Аудио #02: 48 kHz, AC3, 5.1, 448 Kbps | HDRezka Studio | RUS | MVO
Аудио #03: AC3, 6 ch, ~448 kbps - | Английский | -
Формат субтитров: softsub (SRT)

***Релиз от: -=DoMiNo=-

x264 [info]: frame I:1200 Avg QP:13.31 size: 66685
x264 [info]: frame P:28994 Avg QP:14.98 size: 26930
x264 [info]: frame B:122263 Avg QP:17.26 size: 6954
x264 [info]: consecutive B-frames: 1.4% 1.6% 5.7% 12.5% 13.4% 46.8% 6.3% 1.3% 2.5% 1.1% 1.6% 3.8% 2.0%

General
Format : Matroska
Format version : Version 4
File size : 2.54 GiB
Duration : 1 h 45 min
Overall bit rate : 3 435 kb/s
Encoded date : UTC 2020-09-30 20:19:56
Writing application : mkvmerge v8.3.0 ('Over the Horizon') 32bit
Writing library : libebml v1.3.1 + libmatroska v1.4.2
Attachments : poster.jpg / poster 2.jpg

Video
ID : 1
Format : AVC
Format/Info : Advanced Video Codec
Format profile : [email protected]
Format settings : CABAC / 12 Ref Frames
Format settings, CABAC : Yes
Format settings, Reference : 12 frames
Codec ID : V_MPEG4/ISO/AVC
Duration : 1 h 45 min
Bit rate : 2 153 kb/s
Width : 1 168 pixels
Height : 488 pixels
Display aspect ratio : 2.40:1
Frame rate mode : Constant
Frame rate : 23.976 (24000/1001) FPS
Color space : YUV
Chroma subsampling : 4:2:0
Bit depth : 8 bits
Scan type : Progressive
Bits/(Pixel*Frame) : 0.158
Stream size : 1.59 GiB (63%)
Title : RIP_BY_-=DoMiNo=-
Writing library : x264 core 159 r2991 1771b55
Encoding settings : cabac=1 / ref=12 / deblock=1:-3:-3 / analyse=0x3:0x133 / me=umh / subme=10 / psy=1 / psy_rd=1.00:0.15 / mixed_ref=1 / me_range=32 / chroma_me=1 / trellis=2 / 8x8dct=1 / cqm=0 / deadzone=21,11 / fast_pskip=1 / chroma_qp_offset=-3 / threads=6 / lookahead_threads=1 / sliced_threads=0 / nr=0 / decimate=1 / interlaced=0 / bluray_compat=0 / constrained_intra=0 / bframes=12 / b_pyramid=2 / b_adapt=2 / b_bias=0 / direct=1 / weightb=1 / open_gop=0 / weightp=2 / keyint=250 / keyint_min=23 / scenecut=40 / intra_refresh=0 / rc_lookahead=60 / rc=crf / mbtree=0 / crf=17.5 / qcomp=0.60 / qpmin=0 / qpmax=69 / qpstep=4 / vbv_maxrate=50000 / vbv_bufsize=62500 / crf_max=0.0 / nal_hrd=none / filler=0 / ip_ratio=1.40 / pb_ratio=1.30 / aq=3:0.80
Language : English
Default : Yes
Forced : No
Color range : Limited
Color primaries : BT.709
Transfer characteristics : BT.709
Matrix coefficients : BT.709

Audio #1
ID : 2
Format : AC-3
Format/Info : Audio Coding 3
Commercial name : Dolby Digital
Codec ID : A_AC3
Duration : 1 h 45 min
Bit rate mode : Constant
Bit rate : 384 kb/s
Channel(s) : 6 channels
Channel layout : L R C LFE Ls Rs
Sampling rate : 48.0 kHz
Frame rate : 31.250 FPS (1536 SPF)
Compression mode : Lossy
Stream size : 291 MiB (11%)
Title : DUB
Language : Russian
Service kind : Complete Main
Default : Yes
Forced : Yes

Audio #2
ID : 3
Format : AC-3
Format/Info : Audio Coding 3
Commercial name : Dolby Digital
Codec ID : A_AC3
Duration : 1 h 45 min
Bit rate mode : Constant
Bit rate : 448 kb/s
Channel(s) : 6 channels
Channel layout : L R C LFE Ls Rs
Sampling rate : 48.0 kHz
Frame rate : 31.250 FPS (1536 SPF)
Compression mode : Lossy
Stream size : 340 MiB (13%)
Title : MVO HDRezka Studio
Language : Russian
Service kind : Complete Main
Default : No
Forced : No

Audio #3
ID : 4
Format : AC-3
Format/Info : Audio Coding 3
Commercial name : Dolby Digital
Codec ID : A_AC3
Duration : 1 h 45 min
Bit rate mode : Constant
Bit rate : 448 kb/s
Channel(s) : 6 channels
Channel layout : L R C LFE Ls Rs
Sampling rate : 48.0 kHz
Frame rate : 31.250 FPS (1536 SPF)
Compression mode : Lossy
Stream size : 340 MiB (13%)
Language : English
Service kind : Complete Main
Default : No
Forced : No

Text #1
ID : 5
Format : UTF-8
Codec ID : S_TEXT/UTF8
Codec ID/Info : UTF-8 Plain Text
Duration : 1 h 40 min
Bit rate : 1 b/s
Count of elements : 12
Stream size : 1.03 KiB (0%)
Title : forced
Language : Russian
Default : No
Forced : No

Text #2
ID : 6
Format : UTF-8
Codec ID : S_TEXT/UTF8
Codec ID/Info : UTF-8 Plain Text
Duration : 1 h 40 min
Bit rate : 50 b/s
Count of elements : 781
Stream size : 37.2 KiB (0%)
Title : FOCS
Language : Russian
Default : No
Forced : No

Text #3
ID : 7
Format : UTF-8
Codec ID : S_TEXT/UTF8
Codec ID/Info : UTF-8 Plain Text
Duration : 1 h 40 min
Bit rate : 52 b/s
Count of elements : 826
Stream size : 38.3 KiB (0%)
Title : MENINSUB
Language : Russian
Default : No
Forced : No

Text #4
ID : 8
Format : UTF-8
Codec ID : S_TEXT/UTF8
Codec ID/Info : UTF-8 Plain Text
Duration : 1 h 39 min
Bit rate : 47 b/s
Count of elements : 798
Stream size : 34.6 KiB (0%)
Title : Enigma
Language : Russian
Default : No
Forced : No

Text #5
ID : 9
Format : UTF-8
Codec ID : S_TEXT/UTF8
Codec ID/Info : UTF-8 Plain Text
Duration : 1 min 28 s
Bit rate : 55 b/s
Count of elements : 27
Stream size : 618 Bytes (0%)
Title : forced
Language : English
Default : No
Forced : No

Text #6
ID : 10
Format : UTF-8
Codec ID : S_TEXT/UTF8
Codec ID/Info : UTF-8 Plain Text
Duration : 1 h 38 min
Bit rate : 32 b/s
Count of elements : 825
Stream size : 23.8 KiB (0%)
Language : English
Default : No
Forced : No

Menu
00:00:00.000 : :Chapter 01
00:06:12.581 : :Chapter 02
00:14:09.807 : :Chapter 03
00:20:45.244 : :Chapter 04
00:26:29.588 : :Chapter 05
00:32:03.130 : :Chapter 06
00:38:09.954 : :Chapter 07
00:46:35.835 : :Chapter 08
00:52:06.749 : :Chapter 09
00:58:39.015 : :Chapter 10
01:06:19.976 : :Chapter 11
01:13:22.064 : :Chapter 12
01:20:52.264 : :Chapter 13
01:27:16.481 : :Chapter 14
01:33:55.421 : :Chapter 15
01:40:58.469 : :Chapter 16

Download
Для скачивания .torrent файлов необходима регистрация
Сайт не распространяет и не хранит электронные версии произведений, а лишь предоставляет доступ к создаваемому пользователями каталогу ссылок на торрент-файлы, которые содержат только списки хеш-сумм

Страница 1 из 1

Ответить на тему

   Похожие торренты   Торрент 




tracker_crontracker_cron