Регистрация ·  Логин: Пароль: Запомнить   · Забыли пароль?




Ответить на тему
Статистика раздачи
Размер: 1.08 ГБ | Зарегистрирован: 13 окт 2020, 01:38 | .torrent скачан: 0 раз(а), DHT: [ 0 ] раз(а)
Сидеров: [ 0  | 0 байт/сек ]   Личеров: [ 0  | 0 байт/сек ]   DHT: [ 0 / 0 ]
Автор Сообщение

Модератор

С нами: 2 года 4 месяца
Сообщения: 3361
Россия

Сообщение 13 окт 2020, 01:38 

[Цитировать]

Информация о фильме
Название: Секрет
Оригинальное название: The Secret: Dare to Dream
Год выхода: 2020
Жанр: Мелодрама
Режиссер: Энди Теннант
В ролях: Кэти Холмс, Джош Лукас, Джерри О Коннелл, Селия Уэстон, Сара Хоффмайстер, Эйдан Пирс Бреннан, Хлоя Ли, Катрина Бегин, Сидни Теннант, Саманта Больё

О фильме:
Миранда - молодая женщина, которая стала вдовой. Ей очень сложно справляться с болью утраты, но она просто не имеет права падать духом, поскольку теперь в одиночку воспитывает троих детей. Героиня всеми силами старается показать бодрость и жизнерадостность, чтобы помочь малышам справиться со стрессом. Миранда постоянно вынуждена брать сверхурочные часы, поскольку финансовое положение семьи зависит только от нее. Вскоре в их немного устоявшуюся жизнь вмешивается шторм, который сильно повреждает дом героев. Миранда вызывает мастера, чтобы отремонтировать жилище. Так в жизни героев появляется уверенный в себе Брэй. Он быстро находит общий язык с детьми и приносит в эту семью давно утерянное равновесие. Вот только у него есть некий секрет, который может все изменить...



Страна: США
Студия: TRI G, Savvy Media Holdings, Covert Media
Продолжительность: 01:47:35
Перевод: Дублированный | iTunes
Субтитры: Английские

Файл
Формат: Matroska
Качество: WEB-DLRip-AVC
Видео: 960x402 at 23.976 fps, [email protected], ~1054 kbps
Аудио: 48 kHz, AC3, 5.1, 384 Kbps
Формат субтитров: softsub (SRT)

***Релиз от: -=DoMiNo=-

x264 [info]: frame I:1470 Avg QP:17.53 size: 49174
x264 [info]: frame P:31620 Avg QP:19.14 size: 13132
x264 [info]: frame B:121687 Avg QP:21.33 size: 2986
x264 [info]: consecutive B-frames: 2.3% 2.2% 8.2% 9.4% 7.1% 64.5% 1.7% 1.7% 0.4% 1.4% 0.8% 0.0% 0.2%

General
Format : Matroska
Format version : Version 4
File size : 1.08 GiB
Duration : 1 h 47 min
Overall bit rate : 1 440 kb/s
Movie name : Секрет / The Secret: Dare to Dream (2020)
Encoded date : UTC 2020-09-29 10:39:38
Writing application : mkvmerge v50.0.0 ('Awakenings') 64-bit
Writing library : libebml v1.4.0 + libmatroska v1.6.2
Cover : Yes
Attachments : Cover.jpg / Cover 2.jpg

Video
ID : 1
Format : AVC
Format/Info : Advanced Video Codec
Format profile : [email protected]
Format settings : CABAC / 12 Ref Frames
Format settings, CABAC : Yes
Format settings, Reference : 12 frames
Codec ID : V_MPEG4/ISO/AVC
Duration : 1 h 47 min
Bit rate : 1 054 kb/s
Width : 960 pixels
Height : 402 pixels
Display aspect ratio : 2.40:1
Frame rate mode : Constant
Frame rate : 23.976 (24000/1001) FPS
Color space : YUV
Chroma subsampling : 4:2:0
Bit depth : 8 bits
Scan type : Progressive
Bits/(Pixel*Frame) : 0.114
Stream size : 811 MiB (73%)
Title : -=DoMiNo=-
Writing library : x264 core 161 r3018 db0d417
Encoding settings : cabac=1 / ref=12 / deblock=1:-3:-3 / analyse=0x3:0x133 / me=umh / subme=10 / psy=1 / psy_rd=1.00:0.15 / mixed_ref=1 / me_range=32 / chroma_me=1 / trellis=2 / 8x8dct=1 / cqm=0 / deadzone=21,11 / fast_pskip=0 / chroma_qp_offset=-3 / threads=6 / lookahead_threads=1 / sliced_threads=0 / nr=0 / decimate=1 / interlaced=0 / bluray_compat=0 / constrained_intra=0 / bframes=12 / b_pyramid=2 / b_adapt=2 / b_bias=0 / direct=1 / weightb=1 / open_gop=0 / weightp=2 / keyint=250 / keyint_min=23 / scenecut=40 / intra_refresh=0 / rc_lookahead=60 / rc=crf / mbtree=0 / crf=19.5 / qcomp=0.60 / qpmin=0 / qpmax=69 / qpstep=4 / vbv_maxrate=50000 / vbv_bufsize=62500 / crf_max=0.0 / nal_hrd=none / filler=0 / ip_ratio=1.40 / pb_ratio=1.30 / aq=1:1.00
Language : English
Default : Yes
Forced : No
Color range : Limited
Color primaries : BT.709
Transfer characteristics : BT.709
Matrix coefficients : BT.709

Audio
ID : 2
Format : AC-3
Format/Info : Audio Coding 3
Commercial name : Dolby Digital
Codec ID : A_AC3
Duration : 1 h 47 min
Bit rate mode : Constant
Bit rate : 384 kb/s
Channel(s) : 6 channels
Channel layout : L R C LFE Ls Rs
Sampling rate : 48.0 kHz
Frame rate : 31.250 FPS (1536 SPF)
Compression mode : Lossy
Stream size : 295 MiB (27%)
Title : DUB
Language : Russian
Service kind : Complete Main
Default : Yes
Forced : Yes

Text
ID : 3
Format : UTF-8
Codec ID : S_TEXT/UTF8
Codec ID/Info : UTF-8 Plain Text
Duration : 1 h 39 min
Bit rate : 66 b/s
Count of elements : 1549
Stream size : 48.3 KiB (0%)
Language : English
Default : No
Forced : No

Menu
00:00:00.000 : :Глава 01
00:07:30.000 : :Глава 02
00:15:00.000 : :Глава 03
00:22:30.000 : :Глава 04
00:30:00.000 : :Глава 05
00:37:30.000 : :Глава 06
00:45:00.000 : :Глава 07
00:52:30.000 : :Глава 08
01:00:00.000 : :Глава 09
01:07:30.000 : :Глава 10
01:15:00.000 : :Глава 11
01:22:30.000 : :Глава 12
01:30:00.000 : :Глава 13
01:37:30.000 : :Глава 14
01:45:00.000 : :Глава 15

Download
Для скачивания .torrent файлов необходима регистрация
Сайт не распространяет и не хранит электронные версии произведений, а лишь предоставляет доступ к создаваемому пользователями каталогу ссылок на торрент-файлы, которые содержат только списки хеш-сумм

Страница 1 из 1

Ответить на тему

   Похожие торренты   Торрент 




cron
tracker_crontracker_cron