Регистрация ·  Логин: Пароль: Запомнить   · Забыли пароль?




Ответить на тему
Статистика раздачи
Размер: 7.51 ГБ | Зарегистрирован: 13 окт 2020, 01:38 | .torrent скачан: 0 раз(а), DHT: [ 1260 ] раз(а)
Сидеров: [ 120  | 0 байт/сек ]   Личеров: [ 11  | 0 байт/сек ]   DHT: [ 120 / 11 ]
Автор Сообщение

Модератор

С нами: 2 года 4 месяца
Сообщения: 3361
Россия

Сообщение 13 окт 2020, 01:38 

[Цитировать]


Информация о фильме
Название: Дьявол всегда здесь
Оригинальное название: The Devil All the Time
Год выхода: 2020
Жанр: триллер, драма, криминал
Режиссер: Антонио Кампос
В ролях: Гарри Меллинг, Райли Кио, Том Холланд, Билл Скарсгард, Роберт Паттинсон, Хейли Беннетт, Себастиан Стэн, Миа Васиковска, Элайза Сканлен, Джейсон Кларк

О фильме:
Молодой Уиллард Рассел возвращается с полей боёв Второй мировой и с первого взгляда влюбляется в работницу кафе Шарлотту. В этом же заведении находят друг друга фотограф-любитель Карл и официантка Сэнди. Хотя мать Уилларда активно сватает сыну местную сироту Хэлен, парень не может выкинуть из головы Шарлотту - влюблённые женятся, и у них рождается сын Арвин. Хэлен же не может противостоять харизме проповедника Роя, выходит за него замуж, и на свет появляется девочка Ленора. Вскоре судьбы молодых семей обернутся самым трагичным образом, а дети станут сводными братом и сестрой в доме матери Уилларда.



Страна: США
Продолжительность: 02:18:52
Перевод: Профессиональный (многоголосый, закадровый) | Flarrow Films

Роли озвучивали: Дмитрий Бугаков, Денис Кузьмичёв, Андрей Маслов, Александр Ганс, Ахилл Намазов, Виталий Кашеваров, Рута Новикова, Екатерина Луценко, Лена Лунина, Алина Лихачёва и Семён Евсиков

Файл
Формат: MKV
Кодек: MPEG-4 AVC
Качество: WEB-DL 1080p
Видео: 1920х1080, ~ 7 500 kb/s, 24.000 FPS, 8 bits
Звук: AC-3, 320 kb/s, 2 channels, 48.0 kHz
Субтитры: Русские (отключаемые UTF-8)

General
Unique ID : 305524316711364234295737111974703935661 (0xE5D9D7D0C46F7F4659DA320B2A6630AD)
Complete name : C:FlarrowThe.Devil.All.the.Time.2020.1080p.Flarrow.Films.mkv
Format : Matroska
Format version : Version 4
File size : 7.51 GiB
Duration : 2 h 18 min
Overall bit rate mode : Variable
Overall bit rate : 7 745 kb/s
Encoded date : UTC 2020-09-27 07:00:32
Writing application : mkvmerge v32.0.0 ('Astral Progressions') 64-bit
Writing library : libebml v1.3.7 + libmatroska v1.5.0

Video
ID : 1
Format : AVC
Format/Info : Advanced Video Codec
Format profile : [email protected]
Format settings : CABAC / 3 Ref Frames
Format settings, CABAC : Yes
Format settings, Reference : 3 frames
Codec ID : V_MPEG4/ISO/AVC
Duration : 2 h 18 min
Bit rate mode : Variable
Bit rate : 7 500 kb/s
Maximum bit rate : 11.2 Mb/s
Width : 1 920 pixels
Height : 1 080 pixels
Display aspect ratio : 16:9
Frame rate mode : Constant
Frame rate : 24.000 FPS
Color space : YUV
Chroma subsampling : 4:2:0
Bit depth : 8 bits
Scan type : Progressive
Bits/(Pixel*Frame) : 0.151
Stream size : 7.20 GiB (96%)
Writing library : x264 core 148 r2722 1b0121b
Encoding settings : cabac=1 / ref=3 / deblock=1:0:0 / analyse=0x1:0x111 / me=umh / subme=10 / psy=1 / psy_rd=1.00:0.00 / mixed_ref=1 / me_range=24 / chroma_me=1 / trellis=2 / 8x8dct=0 / cqm=0 / deadzone=21,11 / fast_pskip=1 / chroma_qp_offset=-2 / threads=6 / lookahead_threads=1 / sliced_threads=0 / nr=0 / decimate=1 / interlaced=0 / bluray_compat=0 / stitchable=1 / constrained_intra=0 / bframes=2 / b_pyramid=0 / b_adapt=2 / b_bias=0 / direct=3 / weightb=1 / open_gop=0 / weightp=2 / keyint=250 / keyint_min=24 / scenecut=0 / intra_refresh=0 / rc_lookahead=48 / rc=2pass / mbtree=1 / bitrate=7500 / ratetol=1.0 / qcomp=0.50 / qpmin=6 / qpmax=51 / qpstep=4 / cplxblur=20.0 / qblur=0.5 / vbv_maxrate=11250 / vbv_bufsize=15000 / nal_hrd=vbr / filler=0 / ip_ratio=1.40 / aq=1:1.00
Default : Yes
Forced : No
Audio
ID : 2
Format : AC-3
Format/Info : Audio Coding 3
Commercial name : Dolby Digital
Codec ID : A_AC3
Duration : 2 h 18 min
Bit rate mode : Constant
Bit rate : 320 kb/s
Channel(s) : 2 channels
Channel layout : L R
Sampling rate : 48.0 kHz
Frame rate : 31.250 FPS (1536 SPF)
Compression mode : Lossy
Stream size : 318 MiB (4%)
Language : Russian
Service kind : Complete Main
Default : Yes
Forced : No

Text
ID : 3
Format : UTF-8
Codec ID : S_TEXT/UTF8
Codec ID/Info : UTF-8 Plain Text
Duration : 2 h 11 min
Bit rate : 77 b/s
Count of elements : 1651
Stream size : 74.4 KiB (0%)
Language : Russian
Default : Yes
Forced : No










Релиз от: Flarrow Films
Примечание: Без интро Flarrow Films



Download
Для скачивания .torrent файлов необходима регистрация
Сайт не распространяет и не хранит электронные версии произведений, а лишь предоставляет доступ к создаваемому пользователями каталогу ссылок на торрент-файлы, которые содержат только списки хеш-сумм

Страница 1 из 1

Ответить на тему

   Похожие торренты   Торрент 




tracker_crontracker_cron