Регистрация ·  Логин: Пароль: Запомнить   · Забыли пароль?




Ответить на тему
Статистика раздачи
Размер: 1.45 ГБ | Зарегистрирован: 13 окт 2020, 01:36 | .torrent скачан: 0 раз(а), DHT: [ 40 ] раз(а)
Сидеров: [ 16  | 0 байт/сек ]   Личеров: [ 7  | 0 байт/сек ]   DHT: [ 16 / 7 ]
Автор Сообщение

Модератор

С нами: 2 года 5 месяцев
Сообщения: 3401
Россия

Сообщение 13 окт 2020, 01:36 

[Цитировать]


Название: Выбивая долги
Оригинальное название: The Tax Collector
Год выхода: 2020
Жанр: Криминал, боевик
Режиссер: Дэвид Эйр
В ролях: Бобби Сото, Синтия Кармона, Шайа ЛаБаф, Хосе Конехо Мартин, Шайенн Рэй Эрнандес, Кле Слоун, Ричард Мескита, Джордж Лопес, Брайан Мартин Ортега, Аалайя Лопес
Описание: Выбивая черный нал из должников, два коллектора перешли дорогу главе наркокартеля, практикующему шаманство. Спровоцировав конфликт между двумя бандами, который может обернуться кровавой бойней, коллекторы поставили под угрозу жизни своих семей.



Страна: США
Студия: Cedar Park Entertainment, Cross Creek Pictures, Faster Horse Pictures, Kodiak Pictures
Продолжительность: 01:35:15
Перевод: Профессиональный (многоголосый, закадровый) | HDRezka Studio

Формат: MKV
Качество: BDRip-AVC
Видео: MPEG-4 AVC, 720x388 (1.85:1), 24.000 fps, 1732 Kbps, 0.258 bit/pixel
Аудио : 48 kHz, AC3, 5.1, 448 Kbps | RUS |
Субтитры: Русские (форс.), английские
General
Unique ID : 235749707184463953072137609826212693783 (0xB15BBDF6A459CD5086D466F6EDC2C717)
Complete name : F:The.Tax.Collector.2020.BDRip.AVC.ExKinoRay.mkv
Format : Matroska
Format version : Version 2
File size : 1.45 GiB
Duration : 1 h 35 min
Overall bit rate : 2 176 kb/s
Movie name : The Tax Collector 2020 from ExKinoRay
Encoded date : UTC 2020-10-12 19:35:44
Writing application : mkvmerge v5.6.0 ('Kenya Kane') built on May 27 2012 16:44:04
Writing library : libebml v1.2.3 + libmatroska v1.3.0

Video
ID : 1
Format : AVC
Format/Info : Advanced Video Codec
Format profile : [email protected]
Format settings, CABAC : Yes
Format settings, ReFrames : 12 frames
Codec ID : V_MPEG4/ISO/AVC
Duration : 1 h 35 min
Bit rate : 1 732 kb/s
Width : 720 pixels
Height : 388 pixels
Display aspect ratio : 1.85:1
Frame rate mode : Constant
Frame rate : 24.000 FPS
Color space : YUV
Chroma subsampling : 4:2:0
Bit depth : 8 bits
Scan type : Progressive
Bits/(Pixel*Frame) : 0.258
Stream size : 1.12 GiB (77%)
Title : Enigma
Writing library : x264 core 152 r2851 ba24899
Encoding settings : cabac=1 / ref=12 / deblock=1:-2:-2 / analyse=0x3:0x113 / me=umh / subme=10 / psy=1 / psy_rd=1.03:0.06 / mixed_ref=1 / me_range=32 / chroma_me=1 / trellis=2 / 8x8dct=1 / cqm=0 / deadzone=21,11 / fast_pskip=0 / chroma_qp_offset=-3 / threads=12 / lookahead_threads=2 / sliced_threads=0 / nr=0 / decimate=0 / interlaced=0 / bluray_compat=0 / constrained_intra=0 / bframes=9 / b_pyramid=2 / b_adapt=2 / b_bias=0 / direct=3 / weightb=1 / open_gop=0 / weightp=2 / keyint=240 / keyint_min=24 / scenecut=40 / intra_refresh=0 / rc=2pass / mbtree=0 / bitrate=1732 / ratetol=1.0 / qcomp=0.60 / qpmin=0 / qpmax=51 / qpstep=4 / cplxblur=20.0 / qblur=0.5 / ip_ratio=1.30 / pb_ratio=1.20 / aq=1:1.00
Default : Yes
Forced : No
Color range : Limited
Color primaries : BT.709
Transfer characteristics : BT.709
Matrix coefficients : BT.709

Audio
ID : 2
Format : AC-3
Format/Info : Audio Coding 3
Mode extension : CM (complete main)
Format settings, Endianness : Big
Codec ID : A_AC3
Duration : 1 h 35 min
Bit rate mode : Constant
Bit rate : 448 kb/s
Channel(s) : 6 channels
Channel positions : Front: L C R, Side: L R, LFE
Sampling rate : 48.0 kHz
Frame rate : 31.250 FPS (1536 spf)
Compression mode : Lossy
Stream size : 305 MiB (21%)
Title : MVO (HDrezka Studio)
Language : Russian
Default : Yes
Forced : No

Text #1
ID : 3
Format : UTF-8
Codec ID : S_TEXT/UTF8
Codec ID/Info : UTF-8 Plain Text
Title : Forced
Language : Russian
Default : Yes
Forced : No

Text #2
ID : 4
Format : UTF-8
Codec ID : S_TEXT/UTF8
Codec ID/Info : UTF-8 Plain Text
Language : English
Default : No
Forced : No

Menu
00:00:00.000 : en:Глава 01
00:12:39.625 : en:Глава 02
00:25:28.042 : en:Глава 03
00:36:20.542 : en:Глава 04
00:48:56.083 : en:Глава 05
01:00:03.042 : en:Глава 06
01:15:27.833 : en:Глава 07
01:30:18.792 : en:Глава 08



Релиз от:

Автор релиза:


Download
Для скачивания .torrent файлов необходима регистрация
Сайт не распространяет и не хранит электронные версии произведений, а лишь предоставляет доступ к создаваемому пользователями каталогу ссылок на торрент-файлы, которые содержат только списки хеш-сумм

Страница 1 из 1

Ответить на тему

   Похожие торренты   Торрент