Регистрация ·  Логин: Пароль: Запомнить   · Забыли пароль?




Ответить на тему
Статистика раздачи
Размер: 1.37 ГБ | Зарегистрирован: 13 окт 2020, 01:36 | .torrent скачан: 0 раз(а), DHT: [ 1523 ] раз(а)
Сидеров: [ 258  | 0 байт/сек ]   Личеров: [ 41  | 0 байт/сек ]   DHT: [ 258 / 41 ]
Автор Сообщение

Модератор

С нами: 2 года 4 месяца
Сообщения: 3361
Россия

Сообщение 13 окт 2020, 01:36 

[Цитировать]


Информация о фильме
Название: Оборотень
Оригинальное название: The Wolf of Snow Hollow
Год выхода: 2020
Жанр: Ужасы, комедия, детектив
Режиссер: Джим Каммингс
В ролях: Джим Каммингс, Рики Линдхоум, Роберт Форстер, Хлоя Ист, Джимми Татро, Маршалл Оллман, Лаура Кувер, Энни Хэмилтон, Джессика Парк, Келси Эдвардс

О фильме: Ужас охватывает небольшой городок, когда в нем после каждого полнолуния находят растерзанные жертвы. Местный офицер полиции, расследуя это дело, верит только фактам и не верит в сказки, но улики неумолимо указывают на то, что это дело рук оборотня...



Страна: США
Студия: Vanishing Angle, New Form
Продолжительность: 01:24:43
Перевод: Любительский многоголосый | @[email protected]

Файл
Кодек: XviD
Качество: WEB-DLRip
Видео: 1913 Кбит/с, 720x384, 23.976 кадр/с
Звук:
Аудио #1: AC3, 48 Гц, 192 Кбит/сек, 2 ch (L + R) | MVO | @[email protected]
Аудио #2: AC3, 48 Гц, 192 Кбит/сек, 2 ch (L + R) | Английский


Общее
Полное имя : D:ТоррентыThe Wolf of Snow Hollow 2020 1080p AMZN WEBRip DDP5 1 x264The.Wolf.of.Snow.Hollow.2020.RU.ENG.XviD.WEB-DLRip-MediaBit.avi
Формат : AVI
Формат/Информация : Audio Video Interleave
Профиль формата : OpenDML
Размер файла : 1,37 Гбайт
Продолжительность : 1 ч. 24 м.
Общий поток : 2 315 Кбит/сек
Название фильма : The Wolf of Snow Hollow (2020)
Программа кодирования : Lavf58.20.100

Видео
Идентификатор : 0
Формат : MPEG-4 Visual
Профиль формата : Advanced [email protected]
Настройки формата : BVOP1 / Custom Matrix
Параметр BVOP формата : 1
Параметр QPel формата : Нет
Параметр GMC формата : Без точки перехода
Параметр матрицы формата : Выборочная
Идентификатор кодека : XVID
Идентификатор кодека/Подсказка : XviD
Продолжительность : 1 ч. 24 м.
Битрейт : 1 913 Кбит/сек
Ширина : 720 пикселей
Высота : 384 пикселя
Соотношение сторон : 1,85:1
Частота кадров : 23,976 (24000/1001) кадра/сек
Цветовое пространство : YUV
Субдискретизация насыщенности : 4:2:0
Битовая глубина : 8 бит
Тип развёртки : Прогрессивная
Метод сжатия : С потерями
Бит/(Пиксели*Кадры) : 0.289
Размер потока : 1,13 Гбайт (83%)
Заголовок : MediaBit
Библиотека кодирования : XviD 67

Аудио #1
Идентификатор : 1
Формат : AC-3
Формат/Информация : Audio Coding 3
Коммерческое название : Dolby Digital
Идентификатор кодека : 2000
Продолжительность : 1 ч. 24 м.
Вид битрейта : Постоянный
Битрейт : 192 Кбит/сек
Каналы : 2 канала
Channel layout : L R
Частота : 48,0 КГц
Частота кадров : 31,250 кадров/сек (1536 SPF)
Битовая глубина : 16 бит
Метод сжатия : С потерями
Размер потока : 116 Мбайт (8%)
Выравнивание : Соединение по промежуткам
Продолжительность промежутка : 32 мс. (0,77 видеокадр)
Заголовок : MVO [@[email protected]] MediaBit
Service kind : Complete Main

Аудио #2
Идентификатор : 2
Формат : AC-3
Формат/Информация : Audio Coding 3
Коммерческое название : Dolby Digital
Идентификатор кодека : 2000
Продолжительность : 1 ч. 24 м.
Вид битрейта : Постоянный
Битрейт : 192 Кбит/сек
Каналы : 2 канала
Channel layout : L R
Частота : 48,0 КГц
Частота кадров : 31,250 кадров/сек (1536 SPF)
Битовая глубина : 16 бит
Метод сжатия : С потерями
Размер потока : 116 Мбайт (8%)
Выравнивание : Соединение по промежуткам
Продолжительность промежутка : 32 мс. (0,77 видеокадр)
Service kind : Complete Main


Релиз от:

Download
Для скачивания .torrent файлов необходима регистрация
Сайт не распространяет и не хранит электронные версии произведений, а лишь предоставляет доступ к создаваемому пользователями каталогу ссылок на торрент-файлы, которые содержат только списки хеш-сумм

Страница 1 из 1

Ответить на тему

   Похожие торренты   Торрент 




tracker_crontracker_cron