Регистрация ·  Логин: Пароль: Запомнить   · Забыли пароль?




Ответить на тему
Статистика раздачи
Размер: 1.45 ГБ | Зарегистрирован: 13 окт 2020, 01:35 | .torrent скачан: 0 раз(а), DHT: [ 17366 ] раз(а)
Сидеров: [ 59  | 0 байт/сек ]   Личеров: [ 1  | 0 байт/сек ]   DHT: [ 59 / 1 ]
Автор Сообщение

Модератор

С нами: 2 года 4 месяца
Сообщения: 3361
Россия

Сообщение 13 окт 2020, 01:35 

[Цитировать]


Информация о фильме
Название: Книги крови
Оригинальное название: Books of Blood
Год выхода: 2020
Жанр: Ужасы, фантастика
Режиссер: Брэннон Брага
В ролях: Бритт Робертсон, Фреда Фо Шен, Николас Кэмпбелл, Анна Фрил, Рафи Гаврон, Юл Васкес, Энди МакКуин, Кэндзи Фицджералд, Пейдж Турко, Саад Сиддикуи

О фильме:
Экранизация рассказов Клайва Баркера из цикла «Книги крови». У каждой смерти есть своя история. В фильме показаны три из них. Все они произошли в разное время, в разном месте, но они объединены одним общим фактором - неописуемым ужасом...



Страна: США
Студия: Fox 21 Television Studios, Fuzzy Door Productions
Продолжительность: 01:47:28
Перевод: Профессиональный (многоголосый, закадровый)
Субтитры: Русские (форс. -вшитые, не отключаемые)

Файл
Формат: AVI
Качество: WEB-DLRip
Видео: 704x352 at 23.976 fps, XviD build 69, ~1740 kbps, 0.293 bpp
Аудио: AC3, 2 ch, ~192 kbps - | Русский | -MVO | HDRezka Studio

***Релиз от: -=DoMiNo=-

General
Complete name : Книги крови.(2020).WEB-DLRip.[-=DoMiNo=-].avi
Format : AVI
Format/Info : Audio Video Interleave
File size : 1.45 GiB
Duration : 1 h 47 min
Overall bit rate : 1 938 kb/s
Writing application : VirtualDubModRus 1.5.10.2 (build 2542/release)
Writing library : VirtualDubMod build 2542/release
Copyright : -=DoMiNo=-

Video
ID : 0
Format : MPEG-4 Visual
Format profile : Advanced [email protected]
Format settings : BVOP1 / Custom Matrix
Format settings, BVOP : 1
Format settings, QPel : No
Format settings, GMC : No warppoints
Format settings, Matrix : Custom
Codec ID : XVID
Codec ID/Hint : XviD
Duration : 1 h 47 min
Bit rate : 1 740 kb/s
Width : 704 pixels
Height : 352 pixels
Display aspect ratio : 2.000
Frame rate : 23.976 (24000/1001) FPS
Color space : YUV
Chroma subsampling : 4:2:0
Bit depth : 8 bits
Scan type : Progressive
Compression mode : Lossy
Bits/(Pixel*Frame) : 0.293
Stream size : 1.31 GiB (90%)
Writing library : XviD 69

Audio
ID : 1
Format : AC-3
Format/Info : Audio Coding 3
Commercial name : Dolby Digital
Codec ID : 2000
Duration : 1 h 47 min
Bit rate mode : Constant
Bit rate : 192 kb/s
Channel(s) : 2 channels
Channel layout : L R
Sampling rate : 48.0 kHz
Frame rate : 31.250 FPS (1536 SPF)
Bit depth : 16 bits
Compression mode : Lossy
Stream size : 148 MiB (10%)
Alignment : Aligned on interleaves
Interleave, duration : 160 ms (3.84 video frames)
Interleave, preload duratio : 640 ms
Service kind : Complete Main

Download
Для скачивания .torrent файлов необходима регистрация
Сайт не распространяет и не хранит электронные версии произведений, а лишь предоставляет доступ к создаваемому пользователями каталогу ссылок на торрент-файлы, которые содержат только списки хеш-сумм

Страница 1 из 1

Ответить на тему

   Похожие торренты   Торрент 




tracker_crontracker_cron