Регистрация ·  Логин: Пароль: Запомнить   · Забыли пароль?




Ответить на тему
Статистика раздачи
Размер: 8.91 ГБ | Зарегистрирован: 13 окт 2020, 01:35 | .torrent скачан: 0 раз(а), DHT: [ 0 ] раз(а)
Сидеров: [ 0  | 0 байт/сек ]   Личеров: [ 0  | 0 байт/сек ]   DHT: [ 0 / 0 ]
Автор Сообщение

Модератор

С нами: 2 года 5 месяцев
Сообщения: 3401
Россия

Сообщение 13 окт 2020, 01:35 

[Цитировать]


Информация о фильме
Название: Атомные самураи
Оригинальное название: Fukushima 50
Год выхода: 2020
Жанр: Драма, биография, история
Режиссер: Сэцуро Вакамацу
В ролях: Коити Сато, Кэн Ватанабэ, Хидэтака Ёсиока, Наруми Ясуда, Наото Огата, Сёхэи Хино, Мицуру Хирата, Масато Хагивара, Рихо Ёсиока, Такуми Сайто, Ясуко Томита, Сиро Сано, Ёсихиса Амано, Кэндзи Анан, Ясунори Данта, Кэисукэ Хорибэ

О фильме:
История о ликвидаторах аварии на АЭС Фукусима-1 после землетрясения у восточного побережья острова Хонсю в Японии 11 марта 2011 года, также известного как Великое восточно-японское землетрясение. Как руководству станции, так и обычным сотрудникам предстоит принять ряд важных решений и бороться с мирным атомом ценой собственных жизней.


Страна: Япония
Студия: Kadokawa
Продолжительность: 01:56:54
Перевод: Любительский многоголосый | [@[email protected]]

Файл
Кодек: x.264
Качество: BDRip 1080p
Видео: MPEG-4 AVC, 10.0 Mбит/с, 1920x804, 24.000 кадр/с
Аудио #1: Русский (АС3, 2 ch, 256 Кбит/с, 48.0 KHz) Любительский (многоголосый, закадровый) @[email protected]
Аудио #2: Японский (АС3, 6 ch, 640 Кбит/с, 48.0 KHz)
Субтитры: английские, китайские
► Без Рекламы!
Трейлер
Источник: Fukushima.50.2020.JAPANESE.1080p.BluRay.x264-iKiW
General
Unique ID : 252820659337421691711391596455264013919 (0xBE337CE2EF94CF93854329B678EC4E5F)
Complete name : Fukushima.50.2020.Japanese.BDRip.1080p.mkv
Format : Matroska
Format version : Version 4
File size : 8.91 GiB
Duration : 1 h 56 min
Overall bit rate : 10.9 Mb/s
Encoded date : UTC 2020-10-11 13:27:06
Writing application : mkvmerge v7.1.0 ('Good Love') 64bit built on Jul 27 2014 13:06:55
Writing library : libebml v1.3.0 + libmatroska v1.4.1

Video
ID : 1
Format : AVC
Format/Info : Advanced Video Codec
Format profile : [email protected]
Format settings : CABAC / 5 Ref Frames
Format settings, CABAC : Yes
Format settings, Reference fra : 5 frames
Codec ID : V_MPEG4/ISO/AVC
Duration : 1 h 56 min
Bit rate : 10.0 Mb/s
Width : 1 920 pixels
Height : 804 pixels
Display aspect ratio : 2.40:1
Frame rate mode : Constant
Frame rate : 24.000 FPS
Color space : YUV
Chroma subsampling : 4:2:0
Bit depth : 8 bits
Scan type : Progressive
Bits/(Pixel*Frame) : 0.270
Stream size : 8.18 GiB (92%)
Writing library : x264 core 129 r2245+704+36 8e61944 tMod+MixAQ [[email protected]:2:0 X86_64]
Encoding settings : cabac=1 / ref=5 / deblock=1:-3:-3 / analyse=0x3:0x133 / me=umh / subme=11 / psy=1 / fade_compensate=0.00 / psy_rd=1.00:0.10 / mixed_ref=1 / me_range=64 / chroma_me=1 / trellis=2 / 8x8dct=1 / cqm=0 / deadzone=21,11 / fast_pskip=0 / chroma_qp_offset=-3 / threads=18 / lookahead_threads=3 / sliced_threads=0 / nr=0 / decimate=0 / interlaced=0 / bluray_compat=0 / constrained_intra=0 / fgo=0 / bframes=10 / b_pyramid=2 / b_adapt=2 / b_bias=0 / direct=3 / weightb=1 / open_gop=0 / weightp=2 / keyint=250 / keyint_min=24 / scenecut=40 / intra_refresh=0 / rc=2pass / mbtree=0 / bitrate=10014 / ratetol=1.0 / qcomp=0.70 / qpmin=0 / qpmax=69 / qpstep=4 / cplxblur=20.0 / qblur=0.5 / ip_ratio=1.40 / pb_ratio=1.30 / aq=1 / aq-strength=0.90 / aq-sensitivity=10.00 / aq-ifactor=1.00 / aq-pfactor=1.00 / aq-bfactor=1.00 / aq2=0
Language : Japanese
Default : Yes
Forced : No

Audio #1
ID : 2
Format : AC-3
Format/Info : Audio Coding 3
Commercial name : Dolby Digital
Codec ID : A_AC3
Duration : 1 h 56 min
Bit rate mode : Constant
Bit rate : 256 kb/s
Channel(s) : 2 channels
Channel layout : L R
Sampling rate : 48.0 kHz
Frame rate : 31.250 FPS (1536 SPF)
Compression mode : Lossy
Stream size : 214 MiB (2%)
Title : MVO | [@[email protected]]
Language : Russian
Service kind : Complete Main
Default : Yes
Forced : No

Audio #2
ID : 3
Format : AC-3
Format/Info : Audio Coding 3
Commercial name : Dolby Digital
Codec ID : A_AC3
Duration : 1 h 56 min
Bit rate mode : Constant
Bit rate : 640 kb/s
Channel(s) : 6 channels
Channel layout : L R C LFE Ls Rs
Sampling rate : 48.0 kHz
Frame rate : 31.250 FPS (1536 SPF)
Compression mode : Lossy
Stream size : 535 MiB (6%)
Language : Japanese
Service kind : Complete Main
Default : No
Forced : No

Text #1
ID : 4
Format : UTF-8
Codec ID : S_TEXT/UTF8
Codec ID/Info : UTF-8 Plain Text
Duration : 1 h 56 min
Bit rate : 48 b/s
Count of elements : 1596
Stream size : 41.0 KiB (0%)
Language : English
Default : No
Forced : No

Text #2
ID : 5
Format : UTF-8
Codec ID : S_TEXT/UTF8
Codec ID/Info : UTF-8 Plain Text
Duration : 1 h 56 min
Bit rate : 53 b/s
Count of elements : 1574
Stream size : 45.6 KiB (0%)
Language : Chinese
Default : No
Forced : No

Menu
00:00:00.000 : en:Chapter 01
00:05:04.792 : en:Chapter 02
00:11:39.250 : en:Chapter 03
00:17:32.708 : en:Chapter 04
00:24:14.708 : en:Chapter 05
00:29:12.667 : en:Chapter 06
00:35:29.208 : en:Chapter 07
00:41:42.958 : en:Chapter 08
00:48:27.167 : en:Chapter 09
00:54:04.792 : en:Chapter 10
00:59:03.500 : en:Chapter 11
01:06:03.125 : en:Chapter 12
01:11:39.333 : en:Chapter 13
01:17:53.750 : en:Chapter 14
01:23:21.458 : en:Chapter 15
01:29:06.708 : en:Chapter 16
01:35:09.792 : en:Chapter 17
01:40:15.208 : en:Chapter 18
01:44:50.542 : en:Chapter 19
01:52:13.792 : en:Chapter 20
01:56:54.542 : en:Chapter 21


Download
Для скачивания .torrent файлов необходима регистрация
Сайт не распространяет и не хранит электронные версии произведений, а лишь предоставляет доступ к создаваемому пользователями каталогу ссылок на торрент-файлы, которые содержат только списки хеш-сумм

Страница 1 из 1

Ответить на тему

   Похожие торренты   Торрент