Регистрация ·  Логин: Пароль: Запомнить   · Забыли пароль?




Ответить на тему
Статистика раздачи
Размер: 44.81 ГБ | Зарегистрирован: 13 окт 2020, 01:33 | .torrent скачан: 0 раз(а), DHT: [ 0 ] раз(а)
Сидеров: [ 0  | 0 байт/сек ]   Личеров: [ 0  | 0 байт/сек ]   DHT: [ 0 / 0 ]
Автор Сообщение

Модератор

С нами: 2 года 4 месяца
Сообщения: 3361
Россия

Сообщение 13 окт 2020, 01:33 

[Цитировать]


Информация о фильме
Название: Сила природы
Оригинальное название: Force of Nature
Год выхода: 2020
Жанр: Боевик
Режиссер: Майкл Полиш
В ролях: Мэл Гибсон, Эмиль Хирш, Кейт Босворт, Дэвид Зайас, Стефани Кайо, Тайлер Джон Олсон, Уильям Кэтлетт, Джаспер Полиш, Свен Теммел, Рей Эрнандес



О фильме: Детектив полиции в отставке во время урагана вместе с остальными жильцами оказывается в ловушке в многоэтажном здании. Там же группа опасных преступников планирует провернуть ограбление.

Страна: США
Студия: Emmett/Furla Films, FON Film Production, Force of Nature Film
Продолжительность: 01:39:31
Перевод: Дублированный | iTunes

Качество: BDRemux 2160p
Видео: 3840x2160 at 23.976 fps, MPEG-H HEVC SDR Video, 60100 kbps avg
Аудио #01: 48 kHz, AC3, 5.1, 384 Kbps | iTunes | RUS |
Аудио #02: 48 kHz, DTS-HD MA, 5.1, 3963 Kbps | Оригинал | ENG |
Субтитры: Нет

***дублированный перевод iTunes, со вставками профессионального многоголосого перевода от HDRezka Studio (около пяти минут).



General
Unique ID : 115391704596727269565570268066663418798 (0x56CFA248B0D2E1D333541C7AB90CCBAE)
Complete name : D:Video111Force.of.Nature.2020.BDREMUX.2160p.seleZen.mkv
Format : Matroska
Format version : Version 4
File size : 44.8 GiB
Duration : 1 h 39 min
Overall bit rate mode : Variable
Overall bit rate : 64.5 Mb/s
Movie name : Force of Nature 2020 from селезень
Encoded date : UTC 2020-10-10 04:03:00
Writing application : mkvmerge v40.0.0 ('Old Town Road + Pony') 64-bit
Writing library : libebml v1.3.9 + libmatroska v1.5.2

Video
ID : 1
Format : HEVC
Format/Info : High Efficiency Video Coding
Format profile : Main [email protected]@High
Codec ID : V_MPEGH/ISO/HEVC
Duration : 1 h 39 min
Bit rate : 60.1 Mb/s
Width : 3 840 pixels
Height : 2 160 pixels
Display aspect ratio : 16:9
Frame rate mode : Constant
Frame rate : 23.976 (24000/1001) FPS
Color space : YUV
Chroma subsampling : 4:2:0
Bit depth : 10 bits
Bits/(Pixel*Frame) : 0.302
Stream size : 41.8 GiB (93%)
Language : German
Default : Yes
Forced : No
Color range : Limited
Color primaries : BT.709
Transfer characteristics : BT.709
Matrix coefficients : BT.709

Audio #1
ID : 2
Format : AC-3
Format/Info : Audio Coding 3
Commercial name : Dolby Digital
Codec ID : A_AC3
Duration : 1 h 39 min
Bit rate mode : Constant
Bit rate : 384 kb/s
Channel(s) : 6 channels
Channel layout : L R C LFE Ls Rs
Sampling rate : 48.0 kHz
Frame rate : 31.250 FPS (1536 SPF)
Compression mode : Lossy
Stream size : 273 MiB (1%)
Title : iTunes
Language : Russian
Service kind : Complete Main
Default : Yes
Forced : Yes

Audio #2
ID : 3
Format : DTS XLL
Format/Info : Digital Theater Systems
Commercial name : DTS-HD Master Audio
Codec ID : A_DTS
Duration : 1 h 39 min
Bit rate mode : Variable
Bit rate : 3 963 kb/s
Channel(s) : 6 channels
Channel layout : C L R Ls Rs LFE
Sampling rate : 48.0 kHz
Frame rate : 93.750 FPS (512 SPF)
Bit depth : 24 bits
Compression mode : Lossless
Stream size : 2.76 GiB (6%)
Title : Original
Language : English
Default : No
Forced : No

Menu
00:00:00.000 : de:Глава 01
00:08:57.829 : de:Глава 02
00:15:35.685 : de:Глава 03
00:20:43.576 : de:Глава 04
00:29:53.125 : de:Глава 05
00:39:55.768 : de:Глава 06
00:49:15.703 : de:Глава 07
00:57:55.222 : de:Глава 08
01:07:19.911 : de:Глава 09
01:15:47.001 : de:Глава 10
01:26:03.033 : de:Глава 11
01:33:14.339 : de:Глава 12


Релиз: Присоединяйся к:


Download
Для скачивания .torrent файлов необходима регистрация
Сайт не распространяет и не хранит электронные версии произведений, а лишь предоставляет доступ к создаваемому пользователями каталогу ссылок на торрент-файлы, которые содержат только списки хеш-сумм

Страница 1 из 1

Ответить на тему

   Похожие торренты   Торрент 




tracker_crontracker_cron