Регистрация ·  Логин: Пароль: Запомнить   · Забыли пароль?




Ответить на тему
Статистика раздачи
Размер: 5.63 ГБ | Зарегистрирован: 13 окт 2020, 01:33 | .torrent скачан: 0 раз(а), DHT: [ 0 ] раз(а)
Сидеров: [ 0  | 0 байт/сек ]   Личеров: [ 0  | 0 байт/сек ]   DHT: [ 0 / 0 ]
Автор Сообщение

Модератор

С нами: 2 года 4 месяца
Сообщения: 3361
Россия

Сообщение 13 окт 2020, 01:33 

[Цитировать]


Информация о фильме
Название: Тебе стоило уйти
Оригинальное название: You Should Have Left
Год выпуска: 2020
Жанр: Триллер, ужасы
Режиссер: Дэвид Кепп
В ролях: Кевин Бэйкон, Аманда Сайфред, Колин Блюмено, Эли Пауэрс, Эйвери Тиу Эссекс, Лоури Энн Ричардс, Джошуа Си Джексон

О фильме: Тео Конрой - обеспеченный бывший банкир на пенсии, чей брак с намного более молодой женой-актрисой, Сюзанной, трещит по швам из-за его ревности и мрачных теней в его прошлом. Стремясь наладить отношения, Тео и Сюзанна отправляются вместе с шестилетней дочкой Эллой отдохнуть в съемном загородном доме в Уэльсе. Однако вскоре после приезда Тео начинает подозревать, что некая зловещая сила в доме знает их с Сюзанной секреты даже лучше, чем они сами знают друг друга.



Страна: США, Великобритания
Студия: Blumhouse Productions
Продолжительность: 01:33:29
Перевод 1: Профессиональный (дублированный) | iTunes
Перевод 2: Профессиональный (многоголосый, закадровый) | HDRezka Studio

Файл
Качество: WEB-DL 1080p
Формат: Matroska
Видео: MPEG-4 AVC, 1920x1040 (1.85:1), 7142 kbps, 23.976 fps
Аудио 1: Russian: АС3, 6 ch, 48 kHz, 384 kbps, 16 bits - DUB, iTunes
Аудио 2: Russian: АС3, 6 ch, 48 kHz, 448 kbps, 16 bits - MVO, HDRezka Studio
Аудио 3: English: Е-AC3, 6 ch, 48 kHz, 640 kbps, 16 bits - Original
Субтитры: Русские (Forced, Full), английские

[*]В переводе от HDRezka Studio, присутствует ненормативная лексика!

General
Unique ID : 41694959142954918499460239106590106678 (0x1F5E28336712E949BE3BB3476FB7E436)
Complete name : You.Should.Have.Left.2020.AMZN.WEB-DL.1080p.mkv
Format : Matroska
Format version : Version 4
File size : 5.63 GiB
Duration : 1 h 33 min
Overall bit rate : 8 617 kb/s
Encoded date : UTC 2020-10-09 22:43:42
Writing application : mkvmerge v20.0.0 ('I Am The Sun') 64-bit
Writing library : libebml v1.3.5 + libmatroska v1.4.8

Video
ID : 1
Format : AVC
Format/Info : Advanced Video Codec
Format profile : [email protected]
Format settings : CABAC / 4 Ref Frames
Format settings, CABAC : Yes
Format settings, Reference frames : 4 frames
Codec ID : V_MPEG4/ISO/AVC
Duration : 1 h 33 min
Bit rate mode : Constant
Bit rate : 7 142 kb/s
Nominal bit rate : 10 000 kb/s
Width : 1 920 pixels
Height : 1 040 pixels
Display aspect ratio : 1.85:1
Frame rate mode : Constant
Frame rate : 23.976 (24000/1001) FPS
Color space : YUV
Chroma subsampling : 4:2:0
Bit depth : 8 bits
Scan type : Progressive
Bits/(Pixel*Frame) : 0.149
Stream size : 4.66 GiB (83%)
Title : NTG
Language : English
Default : Yes
Forced : No
Color range : Limited
Color primaries : BT.709
Transfer characteristics : BT.709
Matrix coefficients : BT.709

Audio #1
ID : 2
Format : AC-3
Format/Info : Audio Coding 3
Commercial name : Dolby Digital
Codec ID : A_AC3
Duration : 1 h 33 min
Bit rate mode : Constant
Bit rate : 384 kb/s
Channel(s) : 6 channels
Channel layout : L R C LFE Ls Rs
Sampling rate : 48.0 kHz
Frame rate : 31.250 FPS (1536 SPF)
Compression mode : Lossy
Stream size : 257 MiB (4%)
Title : Dub iTunes
Language : Russian
Service kind : Complete Main
Default : Yes
Forced : No

Audio #2
ID : 3
Format : AC-3
Format/Info : Audio Coding 3
Commercial name : Dolby Digital
Codec ID : A_AC3
Duration : 1 h 33 min
Bit rate mode : Constant
Bit rate : 448 kb/s
Channel(s) : 6 channels
Channel layout : L R C LFE Ls Rs
Sampling rate : 48.0 kHz
Frame rate : 31.250 FPS (1536 SPF)
Compression mode : Lossy
Stream size : 300 MiB (5%)
Title : MVO HDRezka Studio
Language : Russian
Service kind : Complete Main
Default : No
Forced : No

Audio #3
ID : 4
Format : E-AC-3
Format/Info : Enhanced AC-3
Commercial name : Dolby Digital Plus
Codec ID : A_EAC3
Duration : 1 h 33 min
Bit rate mode : Constant
Bit rate : 640 kb/s
Channel(s) : 6 channels
Channel layout : L R C LFE Ls Rs
Sampling rate : 48.0 kHz
Frame rate : 31.250 FPS (1536 SPF)
Compression mode : Lossy
Stream size : 428 MiB (7%)
Language : English
Service kind : Complete Main
Default : No
Forced : No

Text #1
ID : 5
Format : UTF-8
Codec ID : S_TEXT/UTF8
Codec ID/Info : UTF-8 Plain Text
Duration : 1 h 28 min
Bit rate : 1 b/s
Count of elements : 20
Stream size : 1.01 KiB (0%)
Title : forced
Language : Russian
Default : Yes
Forced : No

Text #2
ID : 6
Format : UTF-8
Codec ID : S_TEXT/UTF8
Codec ID/Info : UTF-8 Plain Text
Duration : 1 h 26 min
Bit rate : 2 b/s
Count of elements : 35
Stream size : 1.65 KiB (0%)
Title : forced HDRezka Studio
Language : Russian
Default : No
Forced : No

Text #3
ID : 7
Format : UTF-8
Codec ID : S_TEXT/UTF8
Codec ID/Info : UTF-8 Plain Text
Duration : 1 h 31 min
Bit rate : 63 b/s
Count of elements : 854
Stream size : 42.3 KiB (0%)
Language : Russian
Default : No
Forced : No

Text #4
ID : 8
Format : UTF-8
Codec ID : S_TEXT/UTF8
Codec ID/Info : UTF-8 Plain Text
Duration : 1 h 27 min
Bit rate : 42 b/s
Count of elements : 1162
Stream size : 27.1 KiB (0%)
Language : English
Default : No
Forced : No

Download
Для скачивания .torrent файлов необходима регистрация
Сайт не распространяет и не хранит электронные версии произведений, а лишь предоставляет доступ к создаваемому пользователями каталогу ссылок на торрент-файлы, которые содержат только списки хеш-сумм

Страница 1 из 1

Ответить на тему

   Похожие торренты   Торрент 




tracker_crontracker_cron