Регистрация ·  Логин: Пароль: Запомнить   · Забыли пароль?




Ответить на тему
Статистика раздачи
Размер: 1.45 ГБ | Зарегистрирован: 13 окт 2020, 01:33 | .torrent скачан: 0 раз(а), DHT: [ 0 ] раз(а)
Сидеров: [ 0  | 0 байт/сек ]   Личеров: [ 0  | 0 байт/сек ]   DHT: [ 0 / 0 ]
Автор Сообщение

Модератор

С нами: 2 года 5 месяцев
Сообщения: 3401
Россия

Сообщение 13 окт 2020, 01:33 

[Цитировать]

Порнолоджи, или Милашка как ты / A Nice Girl Like You

Информация о фильме:
Название: Порнолоджи, или Милашка как ты
Оригинальное название: A Nice Girl Like You
Год выхода: 2020
Жанр: Комедия, мелодрама
Режиссер: Крис Райделл, Ник Райделл
В ролях: Люси Хейл, Минди Кон, Джеки Круз, Леонидас Гулаптис, Адхир Кальян, Стивен Фридрих, Скай П. Маршалл, Леа МакКендрик, Джина Пейнбьянко, Надя Куинн
Описание: Если парень обвинил тебя в слишком большой скованности в сексуальной жизни и даже закрепощенности, есть два варианта, как с ним поступить: либо прибить его на месте, либо бросить... Люси талантливый музыкант и очаровательная девушка. Она составляет план с наиболее сумасшедшими идеями, которые должна реализовать, чтобы познать свои возможности и тайные желания.

Страна: США
Студия: Affirmative Entertainment, Caliwood Pictures, SPR Media
Продолжительность: 01:34:27
Перевод: Дублированный - iTunes

Информация о файле:
Кодек: AVC
Формат: MKV
Качество: WEB-DLRip-AVC
Видео: MPEG-4 AVC, 1024x430 (2.40:1), 23.976 fps, 1812 kb/s , 0.172
Аудио RU: AC3, 6 ch, 48 kHz, 384 kbps
Субтитры: Английские (Full)


x264 info: frame I:1345 Avg QP:14.51 size: 65953
x264 info: frame P:31044 Avg QP:17.71 size: 20531
x264 info: frame B:103437 Avg QP:19.61 size: 5366
x264 info: consecutive B-frames: 2.0% 2.3% 6.7% 42.0% 14.0% 24.3% 3.9% 3.1% 0.6% 0.6% 0.1% 0.1% 0.3%
=======================================
General
Unique ID : 309003114155194800569197962712035023909 (0xE877D5C593C72BFF3C06606364E2DC25)
Complete name : D:uTorrentA Nice Girl Like You (2020) WEB-DLRip-AVC from wolf1245 & MediaBit.mkv
Format : Matroska
Format version : Version 4
File size : 1.45 GiB
Duration : 1 h 34 min
Overall bit rate : 2 196 kb/s
Movie name : A Nice Girl Like You (2020) WEB-DLRip-AVC from wolf1245 & MediaBit
Encoded date : UTC 2020-10-09 17:26:17
Writing application : mkvmerge v51.0.0 ('I Wish') 64-bit
Writing library : libebml v1.4.0 + libmatroska v1.6.2
Cover : Yes
Attachments : cover2 / cover2.png
Video
ID : 1
Format : AVC
Format/Info : Advanced Video Codec
Format profile : [email protected]
Format settings : CABAC / 12 Ref Frames
Format settings, CABAC : Yes
Format settings, Reference frames : 12 frames
Codec ID : V_MPEG4/ISO/AVC
Duration : 1 h 34 min
Bit rate : 1 812 kb/s
Width : 1 024 pixels
Height : 430 pixels
Display aspect ratio : 2.40:1
Frame rate mode : Constant
Frame rate : 23.976 (24000/1001) FPS
Color space : YUV
Chroma subsampling : 4:2:0
Bit depth : 8 bits
Scan type : Progressive
Bits/(Pixel*Frame) : 0.172
Stream size : 1.19 GiB (82%)
Title : wolf1245 & MediaBit
Writing library : x264 core 157 r2958 57baac4
Encoding settings : cabac=1 / ref=12 / deblock=1:-3:-3 / analyse=0x3:0x133 / me=umh / subme=11 / psy=1 / psy_rd=1.02:0.06 / mixed_ref=1 / me_range=48 / chroma_me=1 / trellis=2 / 8x8dct=1 / cqm=0 / deadzone=21,11 / fast_pskip=0 / chroma_qp_offset=-3 / threads=10 / lookahead_threads=2 / sliced_threads=0 / nr=0 / decimate=0 / interlaced=0 / bluray_compat=0 / constrained_intra=0 / bframes=12 / b_pyramid=2 / b_adapt=2 / b_bias=0 / direct=3 / weightb=1 / open_gop=0 / weightp=2 / keyint=240 / keyint_min=24 / scenecut=40 / intra_refresh=0 / rc_lookahead=60 / rc=2pass / mbtree=0 / bitrate=1812 / ratetol=1.0 / qcomp=0.60 / qpmin=0 / qpmax=69 / qpstep=4 / cplxblur=20.0 / qblur=0.5 / vbv_maxrate=50000 / vbv_bufsize=62500 / nal_hrd=none / filler=0 / ip_ratio=1.40 / pb_ratio=1.30 / aq=2:0.80
Default : Yes
Forced : No
Color range : Limited
Color primaries : BT.709
Transfer characteristics : BT.709
Matrix coefficients : BT.709
Audio
ID : 2
Format : AC-3
Format/Info : Audio Coding 3
Commercial name : Dolby Digital
Codec ID : A_AC3
Duration : 1 h 34 min
Bit rate mode : Constant
Bit rate : 384 kb/s
Channel(s) : 6 channels
Channel layout : L R C LFE Ls Rs
Sampling rate : 48.0 kHz
Frame rate : 31.250 FPS (1536 SPF)
Compression mode : Lossy
Stream size : 259 MiB (17%)
Title : [DUB] | iTunes
Language : Russian
Service kind : Complete Main
Default : Yes
Forced : No
Text
ID : 3
Format : UTF-8
Codec ID : S_TEXT/UTF8
Codec ID/Info : UTF-8 Plain Text
Duration : 1 h 34 min
Bit rate : 72 b/s
Count of elements : 2091
Stream size : 50.0 KiB (0%)
Title : Full-length
Language : English
Default : No
Forced : No

Релиз от: & &


Download
Для скачивания .torrent файлов необходима регистрация
Сайт не распространяет и не хранит электронные версии произведений, а лишь предоставляет доступ к создаваемому пользователями каталогу ссылок на торрент-файлы, которые содержат только списки хеш-сумм

Страница 1 из 1

Ответить на тему

   Похожие торренты   Торрент 




cron