Регистрация ·  Логин: Пароль: Запомнить   · Забыли пароль?




Ответить на тему
Статистика раздачи
Размер: 2.23 ГБ | Зарегистрирован: 13 окт 2020, 01:32 | .torrent скачан: 0 раз(а), DHT: [ 658 ] раз(а)
Сидеров: [ 4  | 0 байт/сек ]   Личеров: [ 1  | 0 байт/сек ]   DHT: [ 4 / 1 ]
Автор Сообщение

Модератор

С нами: 2 года 4 месяца
Сообщения: 3361
Россия

Сообщение 13 окт 2020, 01:32 

[Цитировать]



Информация о фильме
Название: Антебеллум
Оригинальное название: Antebellum
Год выхода: 2020
Жанр: Триллер, драма

Режиссер: Джерард Буш, Кристофер Ренц
В ролях: Жанель Монэ, Марке Ричардсон II, Эрик Ланж, Джек Хьюстон, Кирси Клемонс, Тонгай Арнольд Чириса, Габури Сидибе, Роберт Арамайо, Джена Мэлоун, Лили Коулес

О фильме:
Известная писательница, активистка и борец за права чёрных женщин Вероника Хенли оказывается в ужасающей реальности. Теперь она - бесправная рабыня на южной плантации, и в компании таких же бедолаг вынуждена ежедневно собирать хлопок и беспрекословно терпеть издевательства белых надсмотрщиков. Выбраться из этого ада не так-то просто, а всех пойманных беглецов ждёт жестокая кара.



Страна: США
Студия: Lionsgate, QC Entertainment
Продолжительность: 01:45:59
Перевод: Дублированный | iTunes
Субтитры: English

Файл
Формат: Matroska
Качество: WEB-DLRip-AVC
Видео: AVC/H.264, 1024x428, ~2238 kbps, 0.213 b/px, 23.976 fps
Аудио 1: AC3, 6 ch, 384 kbps - Русский
Аудио 2: AC3, 6 ch, 384 kbps - Английский
Формат субтитров: softsub (SRT)

x264 info: frame I:921 Avg QP:13.03 size: 69343
x264 info: frame P:33503 Avg QP:15.60 size: 23929
x264 info: frame B:118048 Avg QP:17.61 size: 7735
x264 info: consecutive B-frames: 2.3% 3.4% 8.6% 15.6% 13.0% 51.0% 3.1% 0.9% 0.6% 0.3% 0.2% 0.2% 0.9%

General
Format : Matroska
Format version : Version 4
File size : 2.23 GiB
Duration : 1 h 45 min
Overall bit rate : 3 007 kb/s
Movie name : Antebellum 2020.WEB-DLRip.AVC.DUB.mikos
Encoded date : UTC 2020-10-08 14:49:00
Writing application : mkvmerge v51.0.0 ('I Wish') 64-bit
Writing library : libebml v1.4.0 + libmatroska v1.6.2

Video
ID : 1
Format : AVC
Format/Info : Advanced Video Codec
Format profile : [email protected]
Format settings : CABAC / 10 Ref Frames
Format settings, CABAC : Yes
Format settings, Reference frames : 10 frames
Codec ID : V_MPEG4/ISO/AVC
Duration : 1 h 45 min
Bit rate : 2 238 kb/s
Width : 1 024 pixels
Height : 428 pixels
Display aspect ratio : 2.40:1
Frame rate mode : Constant
Frame rate : 23.976 (24000/1001) FPS
Color space : YUV
Chroma subsampling : 4:2:0
Bit depth : 8 bits
Scan type : Progressive
Bits/(Pixel*Frame) : 0.213
Stream size : 1.66 GiB (74%)
Writing library : x264 core 159 r2991 1771b55
Encoding settings : cabac=1 / ref=10 / deblock=1:-2:-1 / analyse=0x3:0x133 / me=umh / subme=11 / psy=1 / psy_rd=1.00:0.10 / mixed_ref=1 / me_range=32 / chroma_me=1 / trellis=2 / 8x8dct=1 / cqm=0 / deadzone=21,11 / fast_pskip=0 / chroma_qp_offset=-3 / threads=13 / lookahead_threads=3 / sliced_threads=0 / nr=0 / decimate=1 / interlaced=0 / bluray_compat=0 / constrained_intra=0 / bframes=12 / b_pyramid=2 / b_adapt=2 / b_bias=0 / direct=3 / weightb=1 / open_gop=0 / weightp=2 / keyint=240 / keyint_min=23 / scenecut=40 / intra_refresh=0 / rc_lookahead=40 / rc=2pass / mbtree=0 / bitrate=2238 / ratetol=1.0 / qcomp=0.60 / qpmin=0 / qpmax=69 / qpstep=4 / cplxblur=20.0 / qblur=0.5 / vbv_maxrate=50000 / vbv_bufsize=65000 / nal_hrd=none / filler=0 / ip_ratio=1.40 / pb_ratio=1.30 / aq=2:1.00
Language : English
Default : Yes
Forced : No
Color range : Limited
Color primaries : BT.709
Transfer characteristics : BT.709
Matrix coefficients : BT.709

Audio #1
ID : 2
Format : AC-3
Format/Info : Audio Coding 3
Commercial name : Dolby Digital
Codec ID : A_AC3
Duration : 1 h 45 min
Bit rate mode : Constant
Bit rate : 384 kb/s
Channel(s) : 6 channels
Channel layout : L R C LFE Ls Rs
Sampling rate : 48.0 kHz
Frame rate : 31.250 FPS (1536 SPF)
Compression mode : Lossy
Stream size : 291 MiB (13%)
Title : iTunes
Language : Russian
Service kind : Complete Main
Default : Yes
Forced : No

Audio #2
ID : 3
Format : AC-3
Format/Info : Audio Coding 3
Commercial name : Dolby Digital
Codec ID : A_AC3
Duration : 1 h 45 min
Bit rate mode : Constant
Bit rate : 384 kb/s
Channel(s) : 6 channels
Channel layout : L R C LFE Ls Rs
Sampling rate : 48.0 kHz
Frame rate : 31.250 FPS (1536 SPF)
Compression mode : Lossy
Stream size : 291 MiB (13%)
Title : Original
Language : English
Service kind : Complete Main
Default : No
Forced : No

Text
ID : 4
Format : UTF-8
Codec ID : S_TEXT/UTF8
Codec ID/Info : UTF-8 Plain Text
Duration : 1 h 36 min
Bit rate : 42 b/s
Count of elements : 1040
Stream size : 30.0 KiB (0%)
Language : English
Default : Yes
Forced : No

Download
Для скачивания .torrent файлов необходима регистрация
Сайт не распространяет и не хранит электронные версии произведений, а лишь предоставляет доступ к создаваемому пользователями каталогу ссылок на торрент-файлы, которые содержат только списки хеш-сумм

Страница 1 из 1

Ответить на тему

   Похожие торренты   Торрент 




tracker_crontracker_cron