Регистрация ·  Логин: Пароль: Запомнить   · Забыли пароль?




Ответить на тему
Статистика раздачи
Размер: 5.33 ГБ | Зарегистрирован: 13 окт 2020, 01:32 | .torrent скачан: 0 раз(а), DHT: [ 0 ] раз(а)
Сидеров: [ 0  | 0 байт/сек ]   Личеров: [ 0  | 0 байт/сек ]   DHT: [ 0 / 0 ]
Автор Сообщение

Модератор

С нами: 2 года 4 месяца
Сообщения: 3361
Россия

Сообщение 13 окт 2020, 01:32 

[Цитировать]


Информация о фильме
Название: Охота
Оригинальное название: The Hunt
Год выхода: 2020
Жанр: ужасы, боевик, триллер
Режиссер: Крэйг Зобел
В ролях: Бетти Гилпин, Эмма Робертс, Итэн Сапли, Хилари Суэнк, Джастин Хартли, Дж.С. МакКензи, Айк Баринхолц, Гленн Хоуертон, Эми Мэдиган, Мэйкон Блэр, Уэйн Дювалл, Кристофер Берри, Стерджил Симпсон, Кейт Ноулин

О фильме:
Несколько человек имели неосторожность обсуждать в групповом чате охоту на людей. Некоторое время спустя та же компания летит на частном самолёте, когда к ним в салон вваливается ничего непонимающий грязный мужчина, и встречает свою смерть — пассажиры жестоко его убивают. Ещё через какое-то время несколько человек приходят в себя на лесной поляне: во рту у них кляпы, рядом обнаруживается ящик со всевозможными оружием, а сами они стали мишенями в охоте на людей.

Страна: США
Студия: Blumhouse Productions, White Rabbit
Продолжительность: 01:30:02
Перевод: Дублированный (BD EUR), Профессиональный (многоголосый, закадровый), Авторский (одноголосый)
Внимание: присутствует ненормативная лексика с 2 по 5-ю дорожку

Файл
Качество: BDRip 720p
Видео: AVC/H.264, 1280x536, 5481 Кbps, 23.976 fps
Звук:
Аудио 1: AC3, 6 ch, 448 Kbps - Русский (DUB BD EUR)
Аудио 2: AC3, 6 ch, 448 Kbps - Русский (MVO HDrezka Studio)
Аудио 3: AC3, 6 ch, 384 Kbps - Русский (AVO М.Яроцкий)
Аудио 4: AC3, 6 ch, 640 Kbps - Русский (AVO С.Визгунов)
Аудио 5: AC3, 6 ch, 448 Kbps - Русский (AVO А.Дольский)
Аудио 6: AC3, 6 ch, 640 Kbps - Английский
Субтитры: русские (Forced, Fullx2), английские (Full, SDH)

Общее
Уникальный идентификатор : 292378943706585628047285800774576568988 (0xDBF622E332F4B216A405628EA206FA9C)
Полное имя : The_Hunt.2020.BDRip.720p_W.mkv
Формат : Matroska
Версия формата : Version 4
Размер файла : 5,33 Гбайт
Продолжительность : 1 ч. 30 м.
Общий поток : 8 481 Кбит/сек
Название фильма : The Hunt.2020.BDRip.720p.W
Дата кодирования : UTC 2020-10-08 12:02:11
Программа кодирования : mkvmerge v23.0.0 ('The Bride Said No') 64-bit
Библиотека кодирования : libebml v1.3.6 + libmatroska v1.4.9

Видео
Идентификатор : 1
Формат : AVC
Формат/Информация : Advanced Video Codec
Профиль формата : [email protected]
Настройки формата : CABAC / 12 Ref Frames
Параметр CABAC формата : Да
Параметр RefFrames формата : 12 кадров
Идентификатор кодека : V_MPEG4/ISO/AVC
Продолжительность : 1 ч. 30 м.
Битрейт : 5 481 Кбит/сек
Ширина : 1 280 пикселей
Высота : 536 пикселей
Соотношение сторон : 2,40:1
Режим частоты кадров : Постоянный
Частота кадров : 23,976 (23976/1000) кадра/сек
Цветовое пространство : YUV
Субдискретизация насыщенности : 4:2:0
Битовая глубина : 8 бит
Тип развёртки : Прогрессивная
Бит/(Пиксели*Кадры) : 0.333
Размер потока : 3,44 Гбайт (64%)
Заголовок : rip by -=walledol=-
Библиотека кодирования : x264 core 159 r2991 1771b55
Настройки программы : cabac=1 / ref=12 / deblock=1:-3:-3 / analyse=0x3:0x133 / me=umh / subme=11 / psy=1 / psy_rd=1.00:0.00 / mixed_ref=1 / me_range=32 / chroma_me=1 / trellis=2 / 8x8dct=1 / cqm=0 / deadzone=21,11 / fast_pskip=0 / chroma_qp_offset=-2 / threads=12 / lookahead_threads=3 / sliced_threads=0 / nr=0 / decimate=1 / interlaced=0 / bluray_compat=0 / constrained_intra=0 / bframes=10 / b_pyramid=2 / b_adapt=2 / b_bias=0 / direct=3 / weightb=1 / open_gop=0 / weightp=2 / keyint=240 / keyint_min=23 / scenecut=40 / intra_refresh=0 / rc_lookahead=60 / rc=2pass / mbtree=0 / bitrate=5481 / ratetol=1.0 / qcomp=0.60 / qpmin=0 / qpmax=69 / qpstep=4 / cplxblur=20.0 / qblur=0.5 / vbv_maxrate=30000 / vbv_bufsize=33000 / nal_hrd=none / filler=0 / ip_ratio=1.40 / pb_ratio=1.30 / aq=3:0.80
Язык : English
Default : Да
Forced : Нет

Аудио #1
Идентификатор : 2
Формат : AC-3
Формат/Информация : Audio Coding 3
Коммерческое название : Dolby Digital
Идентификатор кодека : A_AC3
Продолжительность : 1 ч. 30 м.
Вид битрейта : Постоянный
Битрейт : 448 Кбит/сек
Каналы : 6 каналов
Channel layout : L R C LFE Ls Rs
Частота : 48,0 КГц
Частота кадров : 31,250 кадров/сек (1536 SPF)
Метод сжатия : С потерями
Размер потока : 288 Мбайт (5%)
Заголовок : DUB (BDEUR)
Язык : Russian
Service kind : Complete Main
Default : Да
Forced : Нет

Аудио #2
Идентификатор : 3
Формат : AC-3
Формат/Информация : Audio Coding 3
Коммерческое название : Dolby Digital
Идентификатор кодека : A_AC3
Продолжительность : 1 ч. 30 м.
Вид битрейта : Постоянный
Битрейт : 448 Кбит/сек
Каналы : 6 каналов
Channel layout : L R C LFE Ls Rs
Частота : 48,0 КГц
Частота кадров : 31,250 кадров/сек (1536 SPF)
Метод сжатия : С потерями
Размер потока : 288 Мбайт (5%)
Заголовок : MVO | HDrezka Studio
Язык : Russian
Service kind : Complete Main
Default : Нет
Forced : Нет

Аудио #3
Идентификатор : 4
Формат : AC-3
Формат/Информация : Audio Coding 3
Коммерческое название : Dolby Digital
Идентификатор кодека : A_AC3
Продолжительность : 1 ч. 30 м.
Вид битрейта : Постоянный
Битрейт : 384 Кбит/сек
Каналы : 6 каналов
Channel layout : L R C LFE Ls Rs
Частота : 48,0 КГц
Частота кадров : 31,250 кадров/сек (1536 SPF)
Метод сжатия : С потерями
Размер потока : 247 Мбайт (5%)
Заголовок : AVO (Kyberpunk)
Язык : Russian
Service kind : Complete Main
Default : Нет
Forced : Нет

Аудио #4
Идентификатор : 5
Формат : AC-3
Формат/Информация : Audio Coding 3
Коммерческое название : Dolby Digital
Идентификатор кодека : A_AC3
Продолжительность : 1 ч. 30 м.
Вид битрейта : Постоянный
Битрейт : 640 Кбит/сек
Каналы : 6 каналов
Channel layout : L R C LFE Ls Rs
Частота : 48,0 КГц
Частота кадров : 31,250 кадров/сек (1536 SPF)
Метод сжатия : С потерями
Размер потока : 412 Мбайт (8%)
Заголовок : AVO (Сергей Визгунов)
Язык : Russian
Service kind : Complete Main
Default : Нет
Forced : Нет

Аудио #5
Идентификатор : 6
Формат : AC-3
Формат/Информация : Audio Coding 3
Коммерческое название : Dolby Digital
Идентификатор кодека : A_AC3
Продолжительность : 1 ч. 30 м.
Вид битрейта : Постоянный
Битрейт : 448 Кбит/сек
Каналы : 6 каналов
Channel layout : L R C LFE Ls Rs
Частота : 48,0 КГц
Частота кадров : 31,250 кадров/сек (1536 SPF)
Метод сжатия : С потерями
Размер потока : 288 Мбайт (5%)
Заголовок : AVO (Андрей Дольский)
Язык : Russian
Service kind : Complete Main
Default : Нет
Forced : Нет

Аудио #6
Идентификатор : 7
Формат : AC-3
Формат/Информация : Audio Coding 3
Коммерческое название : Dolby Digital
Идентификатор кодека : A_AC3
Продолжительность : 1 ч. 30 м.
Вид битрейта : Постоянный
Битрейт : 640 Кбит/сек
Каналы : 6 каналов
Channel layout : L R C LFE Ls Rs
Частота : 48,0 КГц
Частота кадров : 31,250 кадров/сек (1536 SPF)
Метод сжатия : С потерями
Размер потока : 412 Мбайт (8%)
Язык : English
Service kind : Complete Main
Default : Нет
Forced : Нет

Текст #1
Идентификатор : 8
Формат : UTF-8
Идентификатор кодека : S_TEXT/UTF8
Идентификатор кодека/Информация : UTF-8 Plain Text
Продолжительность : 1 ч. 11 м.
Битрейт : 2 бит/сек
Count of elements : 37
Размер потока : 1,54 Кбайт (0%)
Заголовок : Forced
Язык : Russian
Default : Да
Forced : Нет

Текст #2
Идентификатор : 9
Формат : UTF-8
Идентификатор кодека : S_TEXT/UTF8
Идентификатор кодека/Информация : UTF-8 Plain Text
Продолжительность : 1 ч. 28 м.
Битрейт : 75 бит/сек
Count of elements : 1083
Размер потока : 49,5 Кбайт (0%)
Заголовок : Full (BD)
Язык : Russian
Default : Нет
Forced : Нет

Текст #3
Идентификатор : 10
Формат : UTF-8
Идентификатор кодека : S_TEXT/UTF8
Идентификатор кодека/Информация : UTF-8 Plain Text
Продолжительность : 1 ч. 24 м.
Битрейт : 90 бит/сек
Count of elements : 1239
Размер потока : 55,4 Кбайт (0%)
Заголовок : Full
Язык : Russian
Default : Нет
Forced : Нет

Текст #4
Идентификатор : 11
Формат : UTF-8
Идентификатор кодека : S_TEXT/UTF8
Идентификатор кодека/Информация : UTF-8 Plain Text
Продолжительность : 1 ч. 22 м.
Битрейт : 57 бит/сек
Count of elements : 1278
Размер потока : 34,9 Кбайт (0%)
Язык : English
Default : Нет
Forced : Нет

Текст #5
Идентификатор : 12
Формат : UTF-8
Идентификатор кодека : S_TEXT/UTF8
Идентификатор кодека/Информация : UTF-8 Plain Text
Продолжительность : 1 ч. 29 м.
Битрейт : 62 бит/сек
Count of elements : 1572
Размер потока : 40,9 Кбайт (0%)
Заголовок : SDH
Язык : English
Default : Нет
Forced : Нет

Меню
00:00:00.000 : en:Chapter 1
00:02:13.299 : en:Chapter 2
00:06:57.083 : en:Chapter 3
00:10:44.644 : en:Chapter 4
00:15:34.725 : en:Chapter 5
00:18:05.667 : en:Chapter 6
00:22:32.267 : en:Chapter 7
00:25:22.229 : en:Chapter 8
00:31:54.579 : en:Chapter 9
00:38:49.869 : en:Chapter 10
00:43:11.880 : en:Chapter 11
00:49:48.443 : en:Chapter 12
00:52:26.184 : en:Chapter 13
00:56:58.081 : en:Chapter 14
01:00:44.432 : en:Chapter 15
01:05:08.654 : en:Chapter 16
01:08:11.337 : en:Chapter 17
01:14:47.816 : en:Chapter 18
01:22:04.836 : en:Chapter 19
01:24:55.048 : en:Chapter 20


Download
Для скачивания .torrent файлов необходима регистрация
Сайт не распространяет и не хранит электронные версии произведений, а лишь предоставляет доступ к создаваемому пользователями каталогу ссылок на торрент-файлы, которые содержат только списки хеш-сумм

Страница 1 из 1

Ответить на тему

   Похожие торренты   Торрент 




tracker_crontracker_cron