Регистрация ·  Логин: Пароль: Запомнить   · Забыли пароль?




Ответить на тему
Статистика раздачи
Размер: 1.45 ГБ | Зарегистрирован: 13 окт 2020, 01:31 | .torrent скачан: 0 раз(а), DHT: [ 484 ] раз(а)
Сидеров: [ 19  | 0 байт/сек ]   Личеров: [ 1  | 0 байт/сек ]   DHT: [ 19 / 1 ]
Автор Сообщение

Модератор

С нами: 2 года 4 месяца
Сообщения: 3361
Россия

Сообщение 13 окт 2020, 01:31 

[Цитировать]


«The Most Talked About Movie of the Year is One That No One's Actually Seen»

Информация о фильме
Название: Охота
Оригинальное название: The Hunt
Год выхода: 2020
Жанр: Боевик, комедия, триллер

Режиссер: Крэйг Зобел
В ролях: Бетти Гилпин, Эмма Робертс, Итэн Сапли, Хилари Суэнк, Джастин Хартли, Дж.С. МакКензи, Айк Баринхолц, Гленн Хоуертон, Эми Мэдиган, Мэйкон Блэр, Уэйн Дювалл, Кристофер Берри, Стерджил Симпсон, Кейт Ноулин

О фильме:
Несколько человек имели неосторожность обсуждать в групповом чате охоту на людей. Некоторое время спустя та же компания летит на частном самолёте, когда к ним в салон вваливается ничего непонимающий грязный мужчина, и встречает свою смерть - пассажиры жестоко его убивают. Ещё через какое-то время несколько человек приходят в себя на лесной поляне: во рту у них кляпы, рядом обнаруживается ящик со всевозможными оружием, а сами они стали мишенями в охоте на людей.



Страна: США
Студия: Blumhouse Productions, Dentsu
Продолжительность: 01:30:02
Перевод:
• Профессиональный (полное дублирование) | Лицензия Blu-ray EUR

Файл
Качество: BDRip-AVC
Исходник: The.Hunt.2020.1080p.BluRay.REMUX.AVC.DTS-HD.MA.7.1-EPSiLON
Формат: MKV
Кодек: MPEG-4 AVC
Видео: 832x348 (2.40:1), 23.976 fps, MPEG-4 AVC ~ 1870 Kbps avg, 0.269 bit/pixel
Аудио: AC3, 48 kHz, 6 ch, ~448.00 kbps avg | русский | Blu-ray EUR
Субтитры: Русские (Forced, Full)
Общее
Уникальный идентификатор : 176596082475077491069660778362636378016 (0x84DB2B17AD27983DCD382F25FC089FA0)
Полное имя : The.Hunt.2020.BDRip.1.45Gb.x264.mkv
Формат : Matroska
Версия формата : Version 4
Размер файла : 1,45 Гбайт
Продолжительность : 1 ч. 30 м.
Общий поток : 2 310 Кбит/сек
Название фильма : Охота / The Hunt (2020)
Дата кодирования : UTC 2020-10-08 09:26:20
Программа кодирования : mkvmerge v47.0.0 ('Black Flag') 64-bit
Библиотека кодирования : libebml v1.3.10 + libmatroska v1.5.2
Обложка : Yes
Attachments : cover.jpg

Видео
Идентификатор : 1
Формат : AVC
Формат/Информация : Advanced Video Codec
Профиль формата : [email protected]
Настройки формата : CABAC / 12 Ref Frames
Параметр CABAC формата : Да
Параметр RefFrames формата : 12 кадров
Идентификатор кодека : V_MPEG4/ISO/AVC
Продолжительность : 1 ч. 30 м.
Битрейт : 1 870 Кбит/сек
Ширина : 832 пикселя
Высота : 348 пикселей
Соотношение сторон : 2,40:1
Режим частоты кадров : Постоянный
Частота кадров : 23,976 (24000/1001) кадра/сек
Цветовое пространство : YUV
Субдискретизация насыщенности : 4:2:0
Битовая глубина : 8 бит
Тип развёртки : Прогрессивная
Бит/(Пиксели*Кадры) : 0.269
Размер потока : 1,17 Гбайт (81%)
Заголовок : #stillet
Библиотека кодирования : x264 core 152 r2851bm ba24899
Настройки программы : cabac=1 / ref=12 / deblock=1:-2:-2 / analyse=0x3:0x113 / me=umh / subme=10 / psy=1 / psy_rd=1.00:0.15 / mixed_ref=1 / me_range=32 / chroma_me=1 / trellis=2 / 8x8dct=1 / cqm=0 / deadzone=21,11 / fast_pskip=0 / chroma_qp_offset=-3 / threads=8 / lookahead_threads=3 / sliced_threads=0 / nr=0 / decimate=0 / interlaced=0 / bluray_compat=0 / constrained_intra=0 / bframes=12 / b_pyramid=2 / b_adapt=2 / b_bias=0 / direct=3 / weightb=1 / open_gop=0 / weightp=2 / keyint=240 / keyint_min=23 / scenecut=40 / intra_refresh=0 / rc=2pass / mbtree=0 / bitrate=1870 / ratetol=1.0 / qcomp=0.60 / qpmin=0 / qpmax=69 / qpstep=4 / cplxblur=20.0 / qblur=0.5 / ip_ratio=1.40 / pb_ratio=1.30 / aq=1:1.00
Язык : English
Default : Да
Forced : Нет

Аудио
Идентификатор : 2
Формат : AC-3
Формат/Информация : Audio Coding 3
Коммерческое название : Dolby Digital
Идентификатор кодека : A_AC3
Продолжительность : 1 ч. 30 м.
Вид битрейта : Постоянный
Битрейт : 448 Кбит/сек
Каналы : 6 каналов
Channel layout : L R C LFE Ls Rs
Частота : 48,0 КГц
Частота кадров : 31,250 кадров/сек (1536 SPF)
Метод сжатия : С потерями
Размер потока : 288 Мбайт (19%)
Заголовок : DUB | Лицензия
Язык : Russian
Service kind : Complete Main
Default : Да
Forced : Да

Текст #1
Идентификатор : 3
Формат : UTF-8
Идентификатор кодека : S_TEXT/UTF8
Идентификатор кодека/Информация : UTF-8 Plain Text
Продолжительность : 1 м. 0 с.
Битрейт : 193 бит/сек
Count of elements : 18
Размер потока : 1,43 Кбайт (0%)
Заголовок : Forced
Язык : Russian
Default : Да
Forced : Да

Текст #2
Идентификатор : 4
Формат : UTF-8
Идентификатор кодека : S_TEXT/UTF8
Идентификатор кодека/Информация : UTF-8 Plain Text
Продолжительность : 1 ч. 24 м.
Битрейт : 90 бит/сек
Count of elements : 1239
Размер потока : 55,4 Кбайт (0%)
Заголовок : Full
Язык : Russian
Default : Нет
Forced : Нет

Меню
00:00:00.000 : en:Chapter 01
00:02:13.550 : en:Chapter 02
00:06:57.083 : en:Chapter 03
00:10:44.644 : en:Chapter 04
00:15:34.725 : en:Chapter 05
00:18:05.668 : en:Chapter 06
00:22:32.268 : en:Chapter 07
00:25:22.229 : en:Chapter 08
00:31:54.579 : en:Chapter 09
00:38:49.869 : en:Chapter 10
00:43:11.881 : en:Chapter 11
00:49:48.444 : en:Chapter 12
00:52:26.185 : en:Chapter 13
00:56:58.081 : en:Chapter 14
01:00:44.432 : en:Chapter 15
01:05:08.655 : en:Chapter 16
01:08:11.337 : en:Chapter 17
01:14:47.817 : en:Chapter 18
01:22:04.837 : en:Chapter 19
01:24:55.048 : en:Chapter 20

Download
Для скачивания .torrent файлов необходима регистрация
Сайт не распространяет и не хранит электронные версии произведений, а лишь предоставляет доступ к создаваемому пользователями каталогу ссылок на торрент-файлы, которые содержат только списки хеш-сумм

Страница 1 из 1

Ответить на тему

   Похожие торренты   Торрент 




tracker_crontracker_cron