Регистрация ·  Логин: Пароль: Запомнить   · Забыли пароль?




Ответить на тему
Статистика раздачи
Размер: 744.56 МБ | Зарегистрирован: 13 окт 2020, 01:31 | .torrent скачан: 0 раз(а), DHT: [ 246 ] раз(а)
Сидеров: [ 5  | 0 байт/сек ]   Личеров: [ 1  | 0 байт/сек ]   DHT: [ 5 / 1 ]
Автор Сообщение

Модератор

С нами: 2 года 4 месяца
Сообщения: 3361
Россия

Сообщение 13 окт 2020, 01:31 

[Цитировать]


Информация о фильме
Название: Секрет
Оригинальное название: The Secret: Dare to Dream
Год выпуска: 2020
Жанр: Драма, мелодрама
Режиссер: Энди Теннант
В ролях: Кэти Холмс, Джош Лукас, Джерри О`Коннелл, Селия Уэстон, Сара Хоффмайстер, Эйдан Пирс Бреннан, Хлоя Ли, Катрина Бегин, Сидни Теннант, Саманта Больё

О фильме:
Когда сильный шторм разрушает дом молодой вдовы с тремя детьми, на пороге появляется таинственный незнакомец. Всего за несколько дней загадочный гость объединяет семью и помогает им найти новый смысл в жизни. Он открывает им Секрет, который может изменить все.



Страна: США
Студия: TRI G, Savvy Media Holdings, Covert Media
Продолжительность: 01:47:36
Перевод: Дублированный | iTunes

Файл
Формат: MKV
Качество: BDRip-AVC
Источник: |The.Secret.Dare.to.Dream.2020.BDREMUX.1080p.seleZen|
Видео: 720x302 (2.40:1), 23.976 fps, x264 ~903 kbps avg, 0.173 bit/pixel
Звук: 48 kHz, HE-AAC, 2 ch, ~64 kbps avg
Субтитры: Английские

Релиз:

Format : Matroska
Format version : Version 4
File size : 745 MiB
Duration : 1 h 47 min
Overall bit rate : 967 kb/s
Movie name : Секрет / The Secret: Dare to Dream (2020) BDRip(AVC) OlLanDGroup#Skandar
Encoded date : UTC 2020-10-08 02:36:05
Writing application : mkvmerge v31.0.0 ('Dolores In A Shoestand') 64-bit
Writing library : libebml v1.3.6 + libmatroska v1.4.9

Video
ID : 1
Format : AVC
Format/Info : Advanced Video Codec
Format profile : [email protected]
Format settings : CABAC / 10 Ref Frames
Format settings, CABAC : Yes
Format settings, ReFrames : 10 frames
Codec ID : V_MPEG4/ISO/AVC
Duration : 1 h 47 min
Bit rate : 903 kb/s
Width : 720 pixels
Height : 302 pixels
Display aspect ratio : 2.40:1
Frame rate mode : Constant
Frame rate : 23.976 (24000/1001) FPS
Color space : YUV
Chroma subsampling : 4:2:0
Bit depth : 8 bits
Scan type : Progressive
Bits/(Pixel*Frame) : 0.173
Stream size : 694 MiB (93%)
Title : Секрет / The Secret: Dare to Dream (2020) BDRip(AVC) OlLanDGroup#Skandar
Writing library : x264 core 146 r2538 121396c
Encoding settings : cabac=1 / ref=10 / deblock=1:-3:-3 / analyse=0x3:0x133 / me=umh / subme=11 / psy=1 / psy_rd=0.97:0.05 / mixed_ref=1 / me_range=48 / chroma_me=1 / trellis=2 / 8x8dct=1 / cqm=0 / deadzone=21,11 / fast_pskip=0 / chroma_qp_offset=-3 / threads=6 / lookahead_threads=1 / sliced_threads=0 / nr=0 / decimate=0 / interlaced=0 / bluray_compat=0 / constrained_intra=0 / bframes=11 / b_pyramid=2 / b_adapt=2 / b_bias=0 / direct=3 / weightb=1 / open_gop=0 / weightp=2 / keyint=240 / keyint_min=23 / scenecut=40 / intra_refresh=0 / rc_lookahead=40 / rc=2pass / mbtree=0 / bitrate=903 / ratetol=1.0 / qcomp=0.60 / qpmin=0 / qpmax=69 / qpstep=4 / cplxblur=20.0 / qblur=0.5 / vbv_maxrate=50000 / vbv_bufsize=62500 / nal_hrd=none / filler=0 / ip_ratio=1.40 / pb_ratio=1.30 / aq=1:1.00
Language : English
Default : Yes
Forced : No

Audio
ID : 2
Format : AAC LC SBR
Format/Info : Advanced Audio Codec Low Complexity with Spectral Band Replication
Commercial name : HE-AAC
Format settings : Explicit
Codec ID : A_AAC-2
Duration : 1 h 47 min
Bit rate : 64.0 kb/s
Channel(s) : 2 channels
Channel layout : L R
Sampling rate : 48.0 kHz
Frame rate : 23.438 FPS (2048 SPF)
Compression mode : Lossy
Delay relative to video : 31 ms
Stream size : 49.2 MiB (7%)
Title : DUB | iTunes
Language : Russian
Default : Yes
Forced : No

Text
ID : 3
Format : UTF-8
Codec ID : S_TEXT/UTF8
Codec ID/Info : UTF-8 Plain Text
Duration : 1 h 39 min
Bit rate : 66 b/s
Count of elements : 1549
Stream size : 48.3 KiB (0%)
Title : Full
Language : English
Default : No
Forced : No

Menu
00:00:00.000 : :Chapter 01
00:04:28.894 : :Chapter 02
00:09:33.656 : :Chapter 03
00:16:22.190 : :Chapter 04
00:24:55.202 : :Chapter 05
00:32:44.838 : :Chapter 06
00:37:57.984 : :Chapter 07
00:45:51.165 : :Chapter 08
00:50:51.215 : :Chapter 09
00:56:12.119 : :Chapter 10
01:02:20.987 : :Chapter 11
01:11:14.854 : :Chapter 12
01:20:20.441 : :Chapter 13
01:25:20.782 : :Chapter 14
01:30:56.451 : :Chapter 15
01:36:50.888 : :Chapter 16




Download
Для скачивания .torrent файлов необходима регистрация
Сайт не распространяет и не хранит электронные версии произведений, а лишь предоставляет доступ к создаваемому пользователями каталогу ссылок на торрент-файлы, которые содержат только списки хеш-сумм

Страница 1 из 1

Ответить на тему

   Похожие торренты   Торрент 




tracker_crontracker_cron