Регистрация ·  Логин: Пароль: Запомнить   · Забыли пароль?




Ответить на тему
Статистика раздачи
Размер: 6.38 ГБ | Зарегистрирован: 13 окт 2020, 01:30 | .torrent скачан: 0 раз(а), DHT: [ 0 ] раз(а)
Сидеров: [ 101  | 0 байт/сек ]   Личеров: [ 8  | 0 байт/сек ]   DHT: [ 101 / 8 ]
Автор Сообщение

Модератор

С нами: 2 года 5 месяцев
Сообщения: 3401
Россия

Сообщение 13 окт 2020, 01:30 

[Цитировать]


Год выхода: 2020
Страна / Студия: Австралия, США / Thrills & Spills, Cornerstone Pictures, ProdigyMovies
Жанр: Ужасы, боевик
Продолжительность: 01:38:40
Перевод: Дублированный (iTunes)

Режиссер: Эндрю Трауки
В ролях: Джессика МакНэми, Люк Митчелл, Амали Голден, Бенджамин Хотжес, Энтони Шарп, Луис Тосио Окада, Руми Кикути, Anna Kubat, Nicole Collett, Стью Кирк

Описание: Пять любителей приключений отправляются на поиски тайной системы пещер в Австралии. Друзья надеются на интересное приключение, но внезапный поток смывает их в соседнюю пещеру. Мало того, что вода прибывает, и приятелям нужно скорее выбираться на поверхность, так ещё и агрессивный гребнистый крокодил сильно осложняет ситуацию.

Качество: BDRip 1080p
Видео: HEVC/H.265, 1920x804, ~8227 Kbps
Аудио 1: AC3, 6 ch, 384 Kbps - Русский, дублированный
Аудио 2: AC3, 6 ch, 640 Kbps - Английский
Субтитры: Русские, английские (полные, SDH)



Релиз от: mikos


==============================
x265 info: frame I: 1368, Avg QP:14.06 kb/s: 20984.70
x265 info: frame P: 30665, Avg QP:15.52 kb/s: 13330.46
x265 info: frame B: 109901, Avg QP:17.61 kb/s: 6642.85
==============================
General
Unique ID : 285107958388040176364826539586987405131 (0xD67DCBA23C3A32A84F898AE5635EAF4B)
Complete name : E:ТоррентBlack Water Abyss 2020.BDRip.1080p.HEVC.DUB.10bit.mikos.mkv
Format : Matroska
Format version : Version 4
File size : 6.38 GiB
Duration : 1 h 38 min
Overall bit rate : 9 253 kb/s
Movie name : Black Water Abyss 2020.BDRip.1080p.HEVC.DUB.10bit.mikos
Encoded date : UTC 2020-10-07 11:37:02
Writing application : mkvmerge v51.0.0 ('I Wish') 64-bit
Writing library : libebml v1.4.0 + libmatroska v1.6.2

Video
ID : 1
Format : HEVC
Format/Info : High Efficiency Video Coding
Format profile : Main [email protected]@High
Codec ID : V_MPEGH/ISO/HEVC
Duration : 1 h 38 min
Bit rate : 8 227 kb/s
Width : 1 920 pixels
Height : 804 pixels
Display aspect ratio : 2.40:1
Frame rate mode : Constant
Frame rate : 23.976 (24000/1001) FPS
Color space : YUV
Chroma subsampling : 4:2:0
Bit depth : 10 bits
Bits/(Pixel*Frame) : 0.222
Stream size : 5.67 GiB (89%)
Title : Рип от mikos
Writing library : x265 3.4+20-g343c58ef6:[Windows][clang 10.0.1][64 bit] 10bit
Encoding settings : cpuid=1111039 / frame-threads=3 / numa-pools=12 / wpp / no-pmode / no-pme / no-psnr / no-ssim / log-level=3 / input-csp=1 / input-res=1920x804 / interlace=0 / total-frames=0 / level-idc=41 / high-tier=1 / uhd-bd=0 / ref=5 / allow-non-conformance / no-repeat-headers / annexb / no-aud / no-hrd / info / hash=0 / no-temporal-layers / open-gop / min-keyint=23 / keyint=240 / gop-lookahead=0 / bframes=14 / b-adapt=2 / b-pyramid / bframe-bias=0 / rc-lookahead=60 / lookahead-slices=5 / scenecut=40 / hist-scenecut=0 / radl=0 / no-splice / no-intra-refresh / ctu=32 / min-cu-size=8 / no-rect / no-amp / max-tu-size=32 / tu-inter-depth=1 / tu-intra-depth=1 / limit-tu=0 / rdoq-level=1 / dynamic-rd=0.00 / no-ssim-rd / signhide / no-tskip / nr-intra=0 / nr-inter=0 / no-constrained-intra / strong-intra-smoothing / max-merge=5 / limit-refs=1 / no-limit-modes / me=3 / subme=7 / merange=57 / temporal-mvp / no-frame-dup / no-hme / weightp / no-weightb / no-analyze-src-pics / deblock=-3:-3 / no-sao / no-sao-non-deblock / rd=4 / selective-sao=0 / early-skip / rskip / no-fast-intra / no-tskip-fast / no-cu-lossless / b-intra / no-splitrd-skip / rdpenalty=0 / psy-rd=1.90 / psy-rdoq=0.95 / no-rd-refine / no-lossless / cbqpoffs=0 / crqpoffs=0 / rc=crf / crf=19.5 / qcomp=0.65 / qpstep=4 / stats-write=0 / stats-read=0 / vbv-maxrate=50000 / vbv-bufsize=50000 / vbv-init=0.9 / crf-max=31.0 / crf-min=0.0 / ipratio=1.40 / pbratio=1.30 / aq-mode=1 / aq-strength=1.00 / no-cutree / zone-count=0 / no-strict-cbr / qg-size=32 / no-rc-grain / qpmax=69 / qpmin=0 / no-const-vbv / sar=1 / overscan=0 / videoformat=5 / range=0 / colorprim=2 / transfer=2 / colormatrix=2 / chromaloc=0 / display-window=0 / cll=0,0 / min-luma=0 / max-luma=1023 / log2-max-poc-lsb=8 / vui-timing-info / vui-hrd-info / slices=1 / no-opt-qp-pps / no-opt-ref-list-length-pps / no-multi-pass-opt-rps / scenecut-bias=0.05 / hist-threshold=0.03 / no-opt-cu-delta-qp / no-aq-motion / no-hdr10 / no-hdr10-opt / no-dhdr10-opt / no-idr-recovery-sei / analysis-reuse-level=0 / analysis-save-reuse-level=0 / analysis-load-reuse-level=0 / scale-factor=0 / refine-intra=0 / refine-inter=0 / refine-mv=1 / refine-ctu-distortion=0 / no-limit-sao / ctu-info=0 / no-lowpass-dct / refine-analysis-type=0 / copy-pic=1 / max-ausize-factor=1.0 / no-dynamic-refine / no-single-sei / no-hevc-aq / no-svt / no-field / qp-adaptation-range=1.00 / no-scenecut-aware-qpconformance-window-offsets / right=0 / bottom=0 / decoder-max-rate=0
Language : English
Default : Yes
Forced : No
Color range : Limited

Audio #1
ID : 2
Format : AC-3
Format/Info : Audio Coding 3
Commercial name : Dolby Digital
Codec ID : A_AC3
Duration : 1 h 38 min
Bit rate mode : Constant
Bit rate : 384 kb/s
Channel(s) : 6 channels
Channel layout : L R C LFE Ls Rs
Sampling rate : 48.0 kHz
Frame rate : 31.250 FPS (1536 SPF)
Compression mode : Lossy
Stream size : 271 MiB (4%)
Title : iTunes
Language : Russian
Service kind : Complete Main
Default : Yes
Forced : No

Audio #2
ID : 3
Format : AC-3
Format/Info : Audio Coding 3
Commercial name : Dolby Digital
Codec ID : A_AC3
Duration : 1 h 38 min
Bit rate mode : Constant
Bit rate : 640 kb/s
Channel(s) : 6 channels
Channel layout : L R C LFE Ls Rs
Sampling rate : 48.0 kHz
Frame rate : 31.250 FPS (1536 SPF)
Compression mode : Lossy
Stream size : 452 MiB (7%)
Title : Original
Language : English
Service kind : Complete Main
Default : No
Forced : No

Text #1
ID : 4
Format : UTF-8
Codec ID : S_TEXT/UTF8
Codec ID/Info : UTF-8 Plain Text
Duration : 1 h 33 min
Bit rate : 34 b/s
Count of elements : 902
Stream size : 23.8 KiB (0%)
Title : Full
Language : Russian
Default : No
Forced : No

Text #2
ID : 5
Format : UTF-8
Codec ID : S_TEXT/UTF8
Codec ID/Info : UTF-8 Plain Text
Duration : 1 h 33 min
Bit rate : 23 b/s
Count of elements : 743
Stream size : 16.2 KiB (0%)
Title : Full
Language : English
Default : Yes
Forced : No

Text #3
ID : 6
Format : UTF-8
Codec ID : S_TEXT/UTF8
Codec ID/Info : UTF-8 Plain Text
Duration : 1 h 37 min
Bit rate : 28 b/s
Count of elements : 984
Stream size : 20.5 KiB (0%)
Title : SDH
Language : English
Default : No
Forced : No

Menu
00:00:00.000 : :Chapter 01
00:06:09.744 : :Chapter 02
00:12:47.225 : :Chapter 03
00:19:28.959 : :Chapter 04
00:24:02.316 : :Chapter 05
00:29:15.170 : :Chapter 06
00:37:25.326 : :Chapter 07
00:43:09.003 : :Chapter 08
00:49:28.924 : :Chapter 09
00:55:25.989 : :Chapter 10
01:01:00.365 : :Chapter 11
01:08:11.212 : :Chapter 12
01:15:20.766 : :Chapter 13
01:21:24.546 : :Chapter 14
01:26:50.747 : :Chapter 15
01:34:49.517 : :Chapter 16


Download
Для скачивания .torrent файлов необходима регистрация
Сайт не распространяет и не хранит электронные версии произведений, а лишь предоставляет доступ к создаваемому пользователями каталогу ссылок на торрент-файлы, которые содержат только списки хеш-сумм

Страница 1 из 1

Ответить на тему

   Похожие торренты   Торрент