Регистрация ·  Логин: Пароль: Запомнить   · Забыли пароль?




Ответить на тему
Статистика раздачи
Размер: 1.44 ГБ | Зарегистрирован: 13 окт 2020, 01:30 | .torrent скачан: 0 раз(а), DHT: [ 0 ] раз(а)
Сидеров: [ 0  | 0 байт/сек ]   Личеров: [ 0  | 0 байт/сек ]   DHT: [ 0 / 0 ]
Автор Сообщение

Модератор

С нами: 2 года 5 месяцев
Сообщения: 3401
Россия

Сообщение 13 окт 2020, 01:30 

[Цитировать]


Информация о фильме
Название: Хэллоуин Хьюби
Оригинальное название: Hubie Halloween
Год выхода: 2020
Жанр: Комедия, детектив
Режиссер: Стивен Брилл
В ролях: Пейтон Лист, Адам Сэндлер, Джули Боуэн, Стив Бушеми, Келли Бёрглунд, Рэй Лиотта, Майя Рудольф, Пэрис Берелс, Кевин Джеймс, Ноа Шнапп

О фильме:
Житель городка Салем Хьюби Дюбуа - добродушный парень и большой фанат Хэллоуина, а так же объект насмешек для взрослых и детей. Но когда на город обрушивается неизвестная угроза, которая может положить конец Дню всех святых, Хьюби становится единственным, кто может всех спасти.



Страна: США
Студия: Happy Madison Productions
Продолжительность: 01:43:58
Перевод:
• Профессиональный (полное дублирование) | Пифагор по заказу Netflix

Файл
Качество: WEB-DLRip-AVC
Формат: MKV
Кодек: MPEG-4 AVC
Видео: 832x416 (2.00:1), 24 fps, MPEG-4 AVC ~ 1559 Kbps avg, 0.188 bit/pixel
Аудио: AC3, 48 kHz, 6 ch, ~448.00 kbps avg | русский | Netflix
Субтитры: Русские (Forced, Full)



Общее
Уникальный идентификатор : 275563184963333945701739422415641020733 (0xCF4F89F89279D69600E6C1E445B2893D)
Полное имя : Hubie.Halloween.2020.NF.WEB-DLRip.1.44Gb.x264.mkv
Формат : Matroska
Версия формата : Version 4
Размер файла : 1,44 Гбайт
Продолжительность : 1 ч. 43 м.
Общий поток : 1 986 Кбит/сек
Название фильма : Хэллоуин Хьюби / Hubie Halloween (2020)
Дата кодирования : UTC 2020-10-07 12:14:20
Программа кодирования : mkvmerge v47.0.0 ('Black Flag') 64-bit
Библиотека кодирования : libebml v1.3.10 + libmatroska v1.5.2
Обложка : Yes
Attachments : cover.jpg

Видео
Идентификатор : 1
Формат : AVC
Формат/Информация : Advanced Video Codec
Профиль формата : [email protected]
Настройки формата : CABAC / 10 Ref Frames
Параметр CABAC формата : Да
Параметр RefFrames формата : 10 кадров
Идентификатор кодека : V_MPEG4/ISO/AVC
Продолжительность : 1 ч. 43 м.
Битрейт : 1 559 Кбит/сек
Ширина : 832 пикселя
Высота : 416 пикселей
Соотношение сторон : 2,000
Режим частоты кадров : Постоянный
Частота кадров : 24,000 кадра/сек
Цветовое пространство : YUV
Субдискретизация насыщенности : 4:2:0
Битовая глубина : 8 бит
Тип развёртки : Прогрессивная
Бит/(Пиксели*Кадры) : 0.188
Размер потока : 1,12 Гбайт (77%)
Заголовок : #stillet
Библиотека кодирования : x264 core 152 r2851bm ba24899
Настройки программы : cabac=1 / ref=10 / deblock=1:-2:-2 / analyse=0x3:0x113 / me=umh / subme=10 / psy=1 / psy_rd=1.00:0.15 / mixed_ref=1 / me_range=32 / chroma_me=1 / trellis=2 / 8x8dct=1 / cqm=0 / deadzone=21,11 / fast_pskip=0 / chroma_qp_offset=-3 / threads=8 / lookahead_threads=3 / sliced_threads=0 / nr=0 / decimate=0 / interlaced=0 / bluray_compat=0 / constrained_intra=0 / bframes=10 / b_pyramid=2 / b_adapt=2 / b_bias=0 / direct=3 / weightb=1 / open_gop=0 / weightp=2 / keyint=240 / keyint_min=23 / scenecut=40 / intra_refresh=0 / rc=2pass / mbtree=0 / bitrate=1559 / ratetol=1.0 / qcomp=0.60 / qpmin=0 / qpmax=69 / qpstep=4 / cplxblur=20.0 / qblur=0.5 / ip_ratio=1.40 / pb_ratio=1.30 / aq=1:1.00
Язык : English
Default : Да
Forced : Нет

Аудио
Идентификатор : 2
Формат : AC-3
Формат/Информация : Audio Coding 3
Коммерческое название : Dolby Digital
Идентификатор кодека : A_AC3
Продолжительность : 1 ч. 43 м.
Вид битрейта : Постоянный
Битрейт : 448 Кбит/сек
Каналы : 6 каналов
Channel layout : L R C LFE Ls Rs
Частота : 48,0 КГц
Частота кадров : 31,250 кадров/сек (1536 SPF)
Метод сжатия : С потерями
Размер потока : 333 Мбайт (23%)
Заголовок : Пифагор по заказу Netflix
Язык : Russian
Service kind : Complete Main
Default : Да
Forced : Да

Текст #1
Идентификатор : 3
Формат : UTF-8
Идентификатор кодека : S_TEXT/UTF8
Идентификатор кодека/Информация : UTF-8 Plain Text
Продолжительность : 1 ч. 41 м.
Битрейт : 3 бит/сек
Count of elements : 49
Размер потока : 2,41 Кбайт (0%)
Заголовок : Forced
Язык : Russian
Default : Да
Forced : Да

Текст #2
Идентификатор : 4
Формат : UTF-8
Идентификатор кодека : S_TEXT/UTF8
Идентификатор кодека/Информация : UTF-8 Plain Text
Продолжительность : 1 ч. 41 м.
Битрейт : 109 бит/сек
Count of elements : 1472
Размер потока : 81,3 Кбайт (0%)
Заголовок : Full
Язык : Russian
Default : Нет
Forced : Нет


Download
Для скачивания .torrent файлов необходима регистрация
Сайт не распространяет и не хранит электронные версии произведений, а лишь предоставляет доступ к создаваемому пользователями каталогу ссылок на торрент-файлы, которые содержат только списки хеш-сумм

Страница 1 из 1

Ответить на тему

   Похожие торренты   Торрент