Регистрация ·  Логин: Пароль: Запомнить   · Забыли пароль?




Ответить на тему
Статистика раздачи
Размер: 8.07 ГБ | Зарегистрирован: 13 окт 2020, 01:30 | .torrent скачан: 0 раз(а), DHT: [ 353 ] раз(а)
Сидеров: [ 114  | 0 байт/сек ]   Личеров: [ 10  | 0 байт/сек ]   DHT: [ 114 / 10 ]
Автор Сообщение

Модератор

С нами: 2 года 5 месяцев
Сообщения: 3401
Россия

Сообщение 13 окт 2020, 01:30 

[Цитировать]


Год выхода: 2020
Страна / Студия: США / TRI G, Savvy Media Holdings, Covert Media
Жанр: Драма, мелодрама
Продолжительность: 01:47:35
Перевод: Дублированный (iTunes)

Режиссер: Энди Теннант
В ролях: Кэти Холмс, Джош Лукас, Джерри О`Коннелл, Селия Уэстон, Сара Хоффмайстер, Эйдан Пирс Бреннан, Хлоя Ли, Катрина Бегин, Сидни Теннант, Саманта Больё

Описание: Когда сильный шторм разрушает дом молодой вдовы с тремя детьми, на пороге появляется таинственный незнакомец. Всего за несколько дней загадочный гость объединяет семью и помогает им найти новый смысл в жизни. Он открывает им Секрет, который может изменить все.

Качество: BDRip 1080p
Видео: HEVC/H.265, 1920x804, ~9908 Kbps
Аудио 1: AC3, 6 ch, 384 Kbps - Русский, дублированный
Аудио 2: AC3, 6 ch, 448 Kbps - Английский
Субтитры: Английские



Релиз от: mikos


==============================
x265 info: frame I: 1440, Avg QP:15.72 kb/s: 36840.42
x265 info: frame P: 24756, Avg QP:16.89 kb/s: 19943.56
x265 info: frame B: 128604, Avg QP:18.60 kb/s: 7673.09
==============================
Общее
Уникальный идентификатор : 271939996583442838365358033852355234619 (0xCC95BCFDEE088007F0A121BC0686CB3B)
Полное имя : R:The Secret Dare to Dream 2020.BDRip.1080p.HEVC.DUB.10bit. mikos.mkv
Формат : Matroska
Версия формата : Version 4 / Version 2
Размер файла : 8,07 Гбайт
Продолжительность : 1 ч. 47 м.
Общий поток : 10,7 Мбит/сек
Название фильма : The Secret Dare to Dream 2020.BDRip.1080p.HEVC.DUB.10bit. mikos
Дата кодирования : UTC 2020-10-07 03:40:04
Программа кодирования : mkvmerge v51.0.0 ('I Wish') 64-bit
Библиотека кодирования : libebml v1.4.0 + libmatroska v1.6.2

Видео
Идентификатор : 1
Формат : HEVC
Формат/Информация : High Efficiency Video Coding
Профиль формата : Main [email protected]@High
Идентификатор кодека : V_MPEGH/ISO/HEVC
Продолжительность : 1 ч. 47 м.
Битрейт : 9908 Кбит/сек
Ширина : 1920 пикселей
Высота : 804 пикселя
Соотношение сторон : 2,40:1
Режим частоты кадров : Постоянный
Частота кадров : 23,976 (24000/1001) кадра/сек
Цветовое пространство : YUV
Субдискретизация насыщенности : 4:2:0
Битовая глубина : 10 бит
Бит/(Пиксели*Кадры) : 0.268
Размер потока : 7,45 Гбайт (92%)
Заголовок : Рип от mikos
Библиотека кодирования : x265 3.4+20-g343c58ef6:[Windows][clang 10.0.1][64 bit] 10bit
Настройки программы : cpuid=1111039 / frame-threads=3 / numa-pools=12 / wpp / no-pmode / no-pme / no-psnr / no-ssim / log-level=3 / input-csp=1 / input-res=1920x804 / interlace=0 / total-frames=0 / level-idc=41 / high-tier=1 / uhd-bd=0 / ref=5 / allow-non-conformance / no-repeat-headers / annexb / no-aud / no-hrd / info / hash=0 / no-temporal-layers / open-gop / min-keyint=23 / keyint=240 / gop-lookahead=0 / bframes=14 / b-adapt=2 / b-pyramid / bframe-bias=0 / rc-lookahead=60 / lookahead-slices=5 / scenecut=40 / hist-scenecut=0 / radl=0 / no-splice / no-intra-refresh / ctu=32 / min-cu-size=8 / no-rect / no-amp / max-tu-size=32 / tu-inter-depth=1 / tu-intra-depth=1 / limit-tu=0 / rdoq-level=1 / dynamic-rd=0.00 / no-ssim-rd / signhide / no-tskip / nr-intra=0 / nr-inter=0 / no-constrained-intra / strong-intra-smoothing / max-merge=5 / limit-refs=1 / no-limit-modes / me=3 / subme=7 / merange=57 / temporal-mvp / no-frame-dup / no-hme / weightp / no-weightb / no-analyze-src-pics / deblock=-3:-3 / no-sao / no-sao-non-deblock / rd=4 / selective-sao=0 / early-skip / rskip / no-fast-intra / no-tskip-fast / no-cu-lossless / b-intra / no-splitrd-skip / rdpenalty=0 / psy-rd=2.00 / psy-rdoq=1.00 / no-rd-refine / no-lossless / cbqpoffs=0 / crqpoffs=0 / rc=crf / crf=18.2 / qcomp=0.65 / qpstep=4 / stats-write=0 / stats-read=0 / vbv-maxrate=50000 / vbv-bufsize=50000 / vbv-init=0.9 / crf-max=28.0 / crf-min=0.0 / ipratio=1.40 / pbratio=1.30 / aq-mode=1 / aq-strength=1.00 / no-cutree / zone-count=0 / no-strict-cbr / qg-size=32 / no-rc-grain / qpmax=69 / qpmin=0 / no-const-vbv / sar=1 / overscan=0 / videoformat=5 / range=0 / colorprim=2 / transfer=2 / colormatrix=2 / chromaloc=0 / display-window=0 / cll=0,0 / min-luma=0 / max-luma=1023 / log2-max-poc-lsb=8 / vui-timing-info / vui-hrd-info / slices=1 / no-opt-qp-pps / no-opt-ref-list-length-pps / no-multi-pass-opt-rps / scenecut-bias=0.05 / hist-threshold=0.03 / no-opt-cu-delta-qp / no-aq-motion / no-hdr10 / no-hdr10-opt / no-dhdr10-opt / no-idr-recovery-sei / analysis-reuse-level=0 / analysis-save-reuse-level=0 / analysis-load-reuse-level=0 / scale-factor=0 / refine-intra=0 / refine-inter=0 / refine-mv=1 / refine-ctu-distortion=0 / no-limit-sao / ctu-info=0 / no-lowpass-dct / refine-analysis-type=0 / copy-pic=1 / max-ausize-factor=1.0 / no-dynamic-refine / no-single-sei / no-hevc-aq / no-svt / no-field / qp-adaptation-range=1.00 / no-scenecut-aware-qpconformance-window-offsets / right=0 / bottom=0 / decoder-max-rate=0
Язык : English
Default : Да
Forced : Нет
Цветовой диапазон : Limited

Аудио #1
Идентификатор : 2
Формат : AC-3
Формат/Информация : Audio Coding 3
Идентификатор кодека : A_AC3
Продолжительность : 1 ч. 47 м.
Вид битрейта : Постоянный
Битрейт : 384 Кбит/сек
Каналы : 6 каналов
Расположение каналов : Front: L C R, Side: L R, LFE
Частота : 48,0 КГц
Частота кадров : 31,250 кадров/сек (1536 SPF)
Битовая глубина : 16 бит
Метод сжатия : С потерями
Размер потока : 295 Мбайт (4%)
Заголовок : iTunes
Язык : Russian
ServiceKind/Strin : Complete Main
Default : Да
Forced : Нет

Аудио #2
Идентификатор : 3
Формат : AC-3
Формат/Информация : Audio Coding 3
Идентификатор кодека : A_AC3
Продолжительность : 1 ч. 47 м.
Вид битрейта : Постоянный
Битрейт : 448 Кбит/сек
Каналы : 6 каналов
Расположение каналов : Front: L C R, Side: L R, LFE
Частота : 48,0 КГц
Частота кадров : 31,250 кадров/сек (1536 SPF)
Битовая глубина : 16 бит
Метод сжатия : С потерями
Размер потока : 345 Мбайт (4%)
Заголовок : Original
Язык : English
ServiceKind/Strin : Complete Main
Default : Нет
Forced : Нет

Текст
Идентификатор : 4
Формат : UTF-8
Идентификатор кодека : S_TEXT/UTF8
Идентификатор кодека/Информация : UTF-8 Plain Text
Продолжительность : 1 ч. 39 м.
Битрейт : 66 бит/сек
ElementCount : 1549
Размер потока : 48,3 Кбайт (0%)
Заголовок : Full
Язык : English
Default : Да
Forced : Нет

Меню
00:00:00.000 : :Chapter 1
00:04:28.893 : :Chapter 2
00:09:33.656 : :Chapter 3
00:16:22.189 : :Chapter 4
00:24:55.202 : :Chapter 5
00:32:44.837 : :Chapter 6
00:37:57.984 : :Chapter 7
00:45:51.165 : :Chapter 8
00:50:51.214 : :Chapter 9
00:56:12.118 : :Chapter 10
01:02:20.987 : :Chapter 11
01:11:14.853 : :Chapter 12
01:20:20.440 : :Chapter 13
01:25:20.782 : :Chapter 14
01:30:56.451 : :Chapter 15
01:36:50.888 : :Chapter 16


Download
Для скачивания .torrent файлов необходима регистрация
Сайт не распространяет и не хранит электронные версии произведений, а лишь предоставляет доступ к создаваемому пользователями каталогу ссылок на торрент-файлы, которые содержат только списки хеш-сумм

Страница 1 из 1

Ответить на тему

   Похожие торренты   Торрент 




cron