Регистрация ·  Логин: Пароль: Запомнить   · Забыли пароль?




Ответить на тему
Статистика раздачи
Размер: 8.07 ГБ | Зарегистрирован: 18 май 2019, 22:46 | .torrent скачан: 0 раз(а), DHT: [ 4679 ] раз(а)
Сидеров: [ 364  | 0 байт/сек ]   Личеров: [ 23  | 0 байт/сек ]   DHT: [ 364 / 23 ]
Автор Сообщение

Модератор

С нами: 2 года 4 месяца
Сообщения: 3361
Россия

Сообщение 18 май 2019, 22:46 

[Цитировать]


Название: Омен: Перерождение
Оригинальное название: The Prodigy
Год выхода: 2019
Жанр: Ужасы, триллер
Режиссер: Николас МакКарти
В ролях: Тейлор Шиллинг, Джексон Роберт Скотт, Колм Фиор, Питер Муни, Пол Фото, Бриттани Аллен, Паула Бодро, Элиза Мулчерри, Олунике Аделийи, Джанет Лэнд, Мартин Роуч, Байрон Абалос, Эшли Блэк, Николас МакКарти



О фильме: История молодой матери, которая обеспокоена странным поведением своего восьмилетнего сына. Она считает, что причина такого поведения — нечто сверхъестественное.

Страна: США, Гонконг
Студия: Orion Pictures, Vinson Films, XYZ Films
Продолжительность: 01:31:46
Перевод: Дублированный | iTunes

Качество: BDRip 1080p
Видео: MPEG-4 AVC, 1920x804, 11.6 Mbit/s, 23.976 fps
Звук:
Аудио #01: 48 kHz, AC3, 5.1, 384 Kbps | iTunes | RUS |
Аудио #02: 48 kHz, AC3, 5.1, 640 Kbps | Оригинал | ENG |
Субтитры: Английские



General
Unique ID : 191462334353822543502150226838813099051 (0x900A4DE64E2B869216F6C91B64A7442B)
Complete name : D:Video111The.Prodigy.2019.BDRip.1080p.seleZen.mkv
Format : Matroska
Format version : Version 4
File size : 8.07 GiB
Duration : 1 h 31 min
Overall bit rate : 12.6 Mb/s
Movie name : The Prodigy 2019 from селезень
Encoded date : UTC 2019-05-08 05:51:27
Writing application : mkvmerge v32.0.0 ('Astral Progressions') 64-bit
Writing library : libebml v1.3.7 + libmatroska v1.5.0

Video
ID : 1
Format : AVC
Format/Info : Advanced Video Codec
Format profile : [email protected]
Format settings : CABAC / 5 Ref Frames
Format settings, CABAC : Yes
Format settings, Reference : 5 frames
Codec ID : V_MPEG4/ISO/AVC
Duration : 1 h 31 min
Bit rate : 11.6 Mb/s
Width : 1 920 pixels
Height : 804 pixels
Display aspect ratio : 2.40:1
Frame rate mode : Constant
Frame rate : 23.976 (24000/1001) FPS
Color space : YUV
Chroma subsampling : 4:2:0
Bit depth : 8 bits
Scan type : Progressive
Bits/(Pixel*Frame) : 0.313
Stream size : 7.41 GiB (92%)
Title : seleZen
Writing library : x264 core 148 r2705kMod 3f5ed56
Encoding settings : cabac=1 / ref=5 / deblock=1:-2:-2 / analyse=0x3:0x133 / me=umh / subme=10 / psy=1 / fade_compensate=0.00 / psy_rd=1.20:0.06 / mixed_ref=1 / me_range=24 / chroma_me=1 / trellis=2 / 8x8dct=1 / cqm=0 / deadzone=21,11 / fast_pskip=0 / chroma_qp_offset=-3 / threads=12 / lookahead_threads=2 / sliced_threads=0 / nr=0 / decimate=0 / interlaced=0 / bluray_compat=0 / constrained_intra=0 / fgo=0 / bframes=8 / b_pyramid=2 / b_adapt=2 / b_bias=0 / direct=3 / weightb=1 / open_gop=0 / weightp=2 / keyint=240 / keyint_min=23 / scenecut=40 / intra_refresh=0 / rc_lookahead=50 / rc=2pass / mbtree=0 / bitrate=11578 / ratetol=1.0 / qcomp=0.60 / qpmin=0 / qpmax=51 / qpstep=4 / cplxblur=20.0 / qblur=0.5 / vbv_maxrate=50000 / vbv_bufsize=62500 / nal_hrd=none / filler=0 / ip_ratio=1.40 / pb_ratio=1.30 / aq=3:0.80
Language : English
Default : Yes
Forced : No

Audio #1
ID : 2
Format : AC-3
Format/Info : Audio Coding 3
Commercial name : Dolby Digital
Codec ID : A_AC3
Duration : 1 h 31 min
Bit rate mode : Constant
Bit rate : 384 kb/s
Channel(s) : 6 channels
Channel layout : L R C LFE Ls Rs
Sampling rate : 48.0 kHz
Frame rate : 31.250 FPS (1536 SPF)
Bit depth : 16 bits
Compression mode : Lossy
Stream size : 252 MiB (3%)
Title : iTunes
Language : Russian
Service kind : Complete Main
Default : Yes
Forced : Yes

Audio #2
ID : 3
Format : AC-3
Format/Info : Audio Coding 3
Commercial name : Dolby Digital
Codec ID : A_AC3
Duration : 1 h 31 min
Bit rate mode : Constant
Bit rate : 640 kb/s
Channel(s) : 6 channels
Channel layout : L R C LFE Ls Rs
Sampling rate : 48.0 kHz
Frame rate : 31.250 FPS (1536 SPF)
Bit depth : 16 bits
Compression mode : Lossy
Stream size : 420 MiB (5%)
Title : Original
Language : English
Service kind : Complete Main
Default : No
Forced : No

Text
ID : 4
Format : UTF-8
Codec ID : S_TEXT/UTF8
Codec ID/Info : UTF-8 Plain Text
Duration : 1 h 31 min
Bit rate : 43 b/s
Count of elements : 1154
Stream size : 29.3 KiB (0%)
Title : SDH
Language : English
Default : No
Forced : No

Menu
00:00:00.000 : ru:Глава 01
00:04:05.704 : ru:Глава 02
00:09:53.384 : ru:Глава 03
00:12:55.441 : ru:Глава 04
00:18:32.528 : ru:Глава 05
00:24:20.626 : ru:Глава 06
00:28:53.774 : ru:Глава 07
00:33:59.913 : ru:Глава 08
00:38:33.937 : ru:Глава 09
00:42:10.027 : ru:Глава 10
00:46:54.895 : ru:Глава 11
00:50:15.429 : ru:Глава 12
00:56:20.919 : ru:Глава 13
01:01:39.279 : ru:Глава 14
01:05:14.911 : ru:Глава 15
01:09:53.523 : ru:Глава 16
01:13:42.501 : ru:Глава 17
01:21:23.670 : ru:Глава 18
01:25:20.907 : ru:Глава 19
01:26:46.368 : ru:Глава 20


Релиз:


Download
Для скачивания .torrent файлов необходима регистрация
Сайт не распространяет и не хранит электронные версии произведений, а лишь предоставляет доступ к создаваемому пользователями каталогу ссылок на торрент-файлы, которые содержат только списки хеш-сумм

Страница 1 из 1

Ответить на тему

   Похожие торренты   Торрент 




tracker_crontracker_cron