Регистрация ·  Логин: Пароль: Запомнить   · Забыли пароль?




Ответить на тему
Статистика раздачи
Размер: 746.72 МБ | Зарегистрирован: 18 май 2019, 22:46 | .torrent скачан: 0 раз(а), DHT: [ 129 ] раз(а)
Сидеров: [ 157  | 0 байт/сек ]   Личеров: [ 11  | 0 байт/сек ]   DHT: [ 157 / 11 ]
Автор Сообщение

Модератор

С нами: 2 года 4 месяца
Сообщения: 3361
Россия

Сообщение 18 май 2019, 22:46 

[Цитировать]


Название: Железное небо 2: Грядущая раса
Оригинальное название: Iron Sky: The Coming Race
Год выхода: 2019
Жанр: Фантастика, боевик, комедия, приключения
Режиссер: Тимо Вуоренсола
В ролях: Лара Росси, Владимир Бурлаков, Кит Дэйл, Том Грин, Юлия Дитце, Эдвард Джадж, Мартин Сваби, Эмили Атак, Удо Кир, Джон Фландерс

О фильме:
Спустя 20 лет после событий первого фильма остатки человечества вынуждены переселиться на ту самую базу, основанную в 1945 году сбежавшими нацистами на тёмной стороне Луны — жизнь на планете Земля погибла после разрушительной ядерной войны. Но в пустыне, лежащей посреди ядерной зимы, имеется секрет, касающийся появления человеческой расы, и этот секрет способен возродить былое величие людей или навеки похоронить их надежды на возвращение домой. Отряд людей во главе с отважной Оби Вашингтон отправится на Землю, чтобы бросить вызов армии рептилий Врила — древней космической расы, которая захватила половину галактики и Землю в том числе.



Страна: Финляндия, Германия, Бельгия
Студия: Iron Sky Universe, 27 Films Production, Potemkino
Продолжительность: 01:32:45
Перевод: Авторский - А.Важенин [BadBajo]

Файл
Формат: MKV
Качество: WEB-DLRip-AVC
Видео: MPEG-4 AVC, 816x340, - 1048 Кбит/с
Аудио: AAC-HE, 2 ch, - 76 Кбит/с
Субтитры: Нет

Общее
Уникальный идентификатор : 193646948234754543317999875817052362173 (0x91AF0BAE0B48B44F9C86923CCD1CD5BD)
Полное имя : D:MOVIESIron.Sky.The.Coming.Race.2019.ExKinoRay.mkv
Формат : Matroska
Версия формата : Version 4 / Version 2
Размер файла : 747 Мбайт
Продолжительность : 1 ч. 32 м.
Общий поток : 1126 Кбит/сек
Дата кодирования : UTC 2019-05-07 20:04:34
Программа кодирования : mkvmerge v32.0.0 ('Astral Progressions') 64-bit
Библиотека кодирования : libebml v1.3.7 + libmatroska v1.5.0

Видео
Идентификатор : 1
Формат : AVC
Формат/Информация : Advanced Video Codec
Профиль формата : [email protected]
Параметр CABAC формата : Да
Параметр RefFrames формата : 12 кадров
Идентификатор кодека : V_MPEG4/ISO/AVC
Продолжительность : 1 ч. 32 м.
Битрейт : 1048 Кбит/сек
Ширина : 816 пикселей
Высота : 340 пикселей
Соотношение сторон : 2,40:1
Режим частоты кадров : Постоянный
Частота кадров : 23,976 (24000/1001) кадра/сек
Цветовое пространство : YUV
Субдискретизация насыщенности : 4:2:0
Битовая глубина : 8 бит
Тип развёртки : Прогрессивная
Бит/(Пиксели*Кадры) : 0.158
Размер потока : 695 Мбайт (93%)
Библиотека кодирования : x264 core 152 r2851kMod ba24899
Настройки программы : cabac=1 / ref=12 / deblock=1:-3:-3 / analyse=0x3:0x133 / me=umh / subme=10 / psy=1 / fade_compensate=0.00 / psy_rd=1.00:0.10 / mixed_ref=1 / me_range=32 / chroma_me=1 / trellis=2 / 8x8dct=1 / cqm=0 / deadzone=21,11 / fast_pskip=0 / chroma_qp_offset=-3 / threads=6 / lookahead_threads=1 / sliced_threads=0 / nr=0 / decimate=0 / interlaced=0 / bluray_compat=0 / constrained_intra=0 / bframes=12 / b_pyramid=2 / b_adapt=2 / b_bias=0 / direct=3 / weightb=1 / open_gop=0 / weightp=2 / keyint=240 / keyint_min=23 / scenecut=40 / intra_refresh=0 / rc_lookahead=40 / rc=2pass / mbtree=1 / bitrate=1048 / ratetol=1.0 / qcomp=0.60 / qpmin=0 / qpmax=69 / qpstep=4 / cplxblur=20.0 / qblur=0.5 / ip_ratio=1.40 / aq=3:1.00
Default : Да
Forced : Нет

Аудио
Идентификатор : 2
Формат : AAC
Формат/Информация : Advanced Audio Codec
Профиль формата : HE-AAC / LC
Идентификатор кодека : A_AAC
Продолжительность : 1 ч. 32 м.
Битрейт : 76,0 Кбит/сек
Каналы : 2 канала
Расположение каналов : Front: L R
Частота : 48,0 КГц / 24,0 КГц
Частота кадров : 23,438 кадра/сек (1024 SPF)
Метод сжатия : С потерями
Задержка видео : 31 мс.
Размер потока : 50,4 Мбайт (7%)
Язык : Russian
Default : Да
Forced : Нет



Download
Для скачивания .torrent файлов необходима регистрация
Сайт не распространяет и не хранит электронные версии произведений, а лишь предоставляет доступ к создаваемому пользователями каталогу ссылок на торрент-файлы, которые содержат только списки хеш-сумм

Страница 1 из 1

Ответить на тему

   Похожие торренты   Торрент 




tracker_crontracker_cron