Регистрация ·  Логин: Пароль: Запомнить   · Забыли пароль?




Ответить на тему
Статистика раздачи
Размер: 699.54 МБ | Зарегистрирован: 17 апр 2019, 11:56 | .torrent скачан: 0 раз(а), DHT: [ 0 ] раз(а)
Сидеров: [ 0  | 0 байт/сек ]   Личеров: [ 0  | 0 байт/сек ]   DHT: [ 0 / 0 ]
Автор Сообщение

Модератор

С нами: 2 года 5 месяцев
Сообщения: 3401
Россия

Сообщение 17 апр 2019, 11:56 

[Цитировать]


Название: Мёрси Блэк
Оригинальное название: Mercy Black
Год выхода: 2019
Жанр: Ужасы, триллер, детектив
Режиссер: Оуэн Эгертон
В ролях: Даниэлла Пинеда, Жанин Гарофало, Элле ЛаМонт, Остин Амелио, Дилан Гейдж, Ли Эдди, Софианна Смит, Майлз Эммонс, Рошель Робинсон, Эльке Баучер-Депью, Патрик Лескарбо, Джесси Тилтон, Джейми Ленц, Трой Энтони Хоган

О фильме: Спустя пятнадцать лет после того, как Марина Хэсс заколола свою одноклассницу в попытках призвать дух, известный как Мёрси Блэк, она возвращается домой. Поселившись в доме у сестры и племянника, она узнает, что за годы её пребывания в психиатрической больнице легенда о Мёрси Блэк набрала в городе большую популярность. Преследуемая содеянным, Марина не видит другого выхода, кроме как встретиться с духом из прошлого лицом к лицу и узнать всю правду. В ином случае опасности подвергнется её племянник.



Страна: США
Студия: Divide / Conquer
Продолжительность: 01:28:16
Перевод: Профессиональный (многоголосый, закадровый) | HDrezka Studio
Субтитры: нет

Файл
Кодек: XviD
Качество: WEB-DLRip
Видео: 688x288 (2.39:1), 23.976 fps, XviD build 73 ~970 kbps avg, 0.20 bit/pixel
Звук: 48 kHz, MPEG Layer 3, 2 ch, ~128.00 kbps avg

General
Complete name : Mercy.Black.2019.WEB-DLRip.Portablius.avi
Format : AVI
Format/Info : Audio Video Interleave
File size : 700 MiB
Duration : 1 h 28 min
Overall bit rate : 1 108 kb/s
Writing application : VirtualDubMod 1.5.10.3 | http://www.virtualdub-fr.org || (build 2550/release)
Writing library : VirtualDubMod build 2550/release

Video
ID : 0
Format : MPEG-4 Visual
Format profile : Advanced [email protected]
Format settings : BVOP1 / Custom Matrix
Format settings, BVOP : 1
Format settings, QPel : No
Format settings, GMC : No warppoints
Format settings, Matrix : Custom
Codec ID : XVID
Codec ID/Hint : XviD
Duration : 1 h 28 min
Bit rate : 971 kb/s
Width : 688 pixels
Height : 288 pixels
Display aspect ratio : 2.40:1
Frame rate : 23.976 (24000/1001) FPS
Color space : YUV
Chroma subsampling : 4:2:0
Bit depth : 8 bits
Scan type : Progressive
Compression mode : Lossy
Bits/(Pixel*Frame) : 0.204
Stream size : 613 MiB (88%)
Writing library : XviD 73

Audio
ID : 1
Format : MPEG Audio
Format version : Version 1
Format profile : Layer 3
Codec ID : 55
Codec ID/Hint : MP3
Duration : 1 h 28 min
Bit rate mode : Constant
Bit rate : 128 kb/s
Channel(s) : 2 channels
Sampling rate : 48.0 kHz
Frame rate : 41.667 FPS (1152 SPF)
Compression mode : Lossy
Stream size : 80.8 MiB (12%)
Alignment : Aligned on interleaves
Interleave, duration : 42 ms (1.00 video frame)
Interleave, preload duratio : 504 ms
Writing library : LAME3.99r
Encoding settings : -m s -V 4 -q 2 -lowpass 17 -b 128



Download
Для скачивания .torrent файлов необходима регистрация
Сайт не распространяет и не хранит электронные версии произведений, а лишь предоставляет доступ к создаваемому пользователями каталогу ссылок на торрент-файлы, которые содержат только списки хеш-сумм

Страница 1 из 1

Ответить на тему

   Похожие торренты   Торрент