Регистрация ·  Логин: Пароль: Запомнить   · Забыли пароль?




Ответить на тему
Статистика раздачи
Размер: 3.81 ГБ | Зарегистрирован: 14 апр 2019, 15:32 | .torrent скачан: 2 раз(а), DHT: [ 2 ] раз(а)
Сидеров: [ 0  | 0 байт/сек ]   Личеров: [ 2  | 0 байт/сек ]   DHT: [ 0 / 2 ]
Автор Сообщение

Модератор

С нами: 2 года 5 месяцев
Сообщения: 3401
Россия

Сообщение 14 апр 2019, 15:32 

[Цитировать]


Название: Эль Кукуй: Бугимен
Оригинальное название: Cucuy: The Boogeyman
Год выхода: 2018
Жанр: Триллер
Режиссер: Питер Салливан
В ролях: Марисоль Николс, Брайан Краузе, Джирнест Корчадо, Белла Стайн, Педро Корреа, Мик Игнис, Джэк Эрди, Джастин Эллингс, Изабель Грэвитт, Джеймс Склена

Описание: В маленьком городе начинают таинственным образом пропадать дети. Полиция бессильна, а среди местных жителей ползут слухи, что похищения - это дело рук Эль Кукуи - зловещего бугимена из детских сказок. Однако, подросток-бунтарь Софи считает, что исчезновения связаны с их мрачным новым соседом и решает докопаться до истины.



Страна: США, Hybrid, Production Media Films
Продолжительность: 01:34:50
Перевод: Профессиональный (многоголосый, закадровый) | HDRezka Studio
БЕЗ КАКОЙ-ЛИБО РЕКЛАМЫ!

Формат: MKV
Качество: WEB-DL 1080p
Видео: MPEG-4 AVC, 1916x1072 (16:9), 23.976 fps, 5062 Kbps, 0.103 bit/pixel
Аудио 1: 48 kHz, AC3, 2.0, 192 Kbps | MVO | RUS |
Аудио 2: 48 kHz, AC3, 5.1, 384 Kbps | Оригинал | ENG |
General
Unique ID : 190655177028617353053774454662303102600 (0x8F6ED9F892E9A20395484641CC8CB688)
Complete name : F:Cucuy.The.Boogeyman.2018.MVO.1080p.WEB-DL.ExKinoRay.mkv
Format : Matroska
Format version : Version 2
File size : 3.81 GiB
Duration : 1 h 34 min
Overall bit rate : 5 752 kb/s
Movie name : Cucuy The Boogeyman 2018 from ExKinoRay
Encoded date : UTC 2019-04-10 17:09:21
Writing application : mkvmerge v5.6.0 ('Kenya Kane') built on May 27 2012 16:44:04
Writing library : libebml v1.2.3 + libmatroska v1.3.0

Video
ID : 1
Format : AVC
Format/Info : Advanced Video Codec
Format profile : [email protected]
Format settings, CABAC : Yes
Format settings, ReFrames : 4 frames
Codec ID : V_MPEG4/ISO/AVC
Duration : 1 h 34 min
Bit rate : 5 062 kb/s
Width : 1 916 pixels
Height : 1 072 pixels
Display aspect ratio : 16:9
Frame rate mode : Constant
Frame rate : 23.976 (24000/1001) FPS
Color space : YUV
Chroma subsampling : 4:2:0
Bit depth : 8 bits
Scan type : Progressive
Bits/(Pixel*Frame) : 0.103
Stream size : 3.35 GiB (88%)
Title : Cucuy The Boogeyman
Language : English
Default : Yes
Forced : No
Color range : Limited
Color primaries : BT.709
Transfer characteristics : BT.709
Matrix coefficients : BT.709

Audio #1
ID : 2
Format : AC-3
Format/Info : Audio Coding 3
Mode extension : CM (complete main)
Format settings, Endianness : Big
Codec ID : A_AC3
Duration : 1 h 34 min
Bit rate mode : Constant
Bit rate : 192 kb/s
Channel(s) : 2 channels
Channel positions : Front: L R
Sampling rate : 48.0 kHz
Frame rate : 31.250 FPS (1536 spf)
Compression mode : Lossy
Delay relative to video : -42 ms
Stream size : 130 MiB (3%)
Title : MVO (HDrezka Studio)
Language : Russian
Default : No
Forced : No

Audio #2
ID : 3
Format : AC-3
Format/Info : Audio Coding 3
Mode extension : CM (complete main)
Format settings, Endianness : Big
Codec ID : A_AC3
Duration : 1 h 34 min
Bit rate mode : Constant
Bit rate : 384 kb/s
Channel(s) : 6 channels
Channel positions : Front: L C R, Side: L R, LFE
Sampling rate : 48.0 kHz
Frame rate : 31.250 FPS (1536 spf)
Compression mode : Lossy
Delay relative to video : -42 ms
Stream size : 260 MiB (7%)
Language : English
Default : No
Forced : No

Menu
00:00:00.000 : en:1
00:06:33.977 : en:2
00:10:25.249 : en:3
00:15:10.409 : en:4
00:20:43.283 : en:5
00:26:14.656 : en:6
00:30:21.569 : en:7
00:35:04.852 : en:8
00:39:38.458 : en:9
00:45:32.394 : en:10
00:50:43.997 : en:11
00:56:52.656 : en:12
01:01:52.871 : en:13
01:07:55.275 : en:14
01:12:54.449 : en:15
01:18:35.498 : en:16
01:23:30.041 : en:17
01:29:27.815 : en:18




Релиз от:


Автор релиза:


Download
Для скачивания .torrent файлов необходима регистрация
Сайт не распространяет и не хранит электронные версии произведений, а лишь предоставляет доступ к создаваемому пользователями каталогу ссылок на торрент-файлы, которые содержат только списки хеш-сумм

Страница 1 из 1

Ответить на тему

   Похожие торренты   Торрент 




cron