Регистрация ·  Логин: Пароль: Запомнить   · Забыли пароль?




Ответить на тему
Статистика раздачи
Размер: 1.37 ГБ | Зарегистрирован: 11 апр 2019, 12:36 | .torrent скачан: 2 раз(а), DHT: [ 2 ] раз(а)
Сидеров: [ 2  | 0 байт/сек ]   Личеров: [ 0  | 0 байт/сек ]   DHT: [ 2 / 0 ]
Автор Сообщение

Модератор

С нами: 2 года 4 месяца
Сообщения: 3361
Россия

Сообщение 11 апр 2019, 12:36 

[Цитировать]



Название: Русская невеста
Оригинальное название: The Russian Bride
Год выхода: 2019
Жанр: Ужасы, триллер
Режиссер: Майкл С. Ойеда
В ролях: Корбин Бернсен, Оксана Орлан, Кристина Пименова, Лиза Гудман, Майкл Роберт Брэндон, Элисон Корман, Кинэн Джонстон, Грегори О'Галлахер, Ефим Сомен, Кеннет Г. Боден

О фильме: Простая русская женщина знакомится в интернете с американским миллионером-затворником, затем выходит за него замуж и переезжает в США. Вот только на новом месте семейная идиллия длится недолго: супруг вскоре начинает себя очень странно вести, а в результате и вовсе оказывается психопатом.



Страна: США
Студия: Reigning Entertainment, Millman Productions, Edge West Productions
Продолжительность: 01:41:24
Перевод: Любительский (одноголосый, закадровый) | Хихидок
Субтитры: Английские (вшитые, неотключаемые)

Файл
Кодек: XviD
Качество: WEB-DLRip
Видео: 704x320 (2.20:1), 23.976 fps, XviD build 73 ~1668 kbps avg, 0.31 bit/pixel
Звук: 48 kHz, AC3 Dolby Digital, 2/0 (L,R) ch, ~256 kbps

General
Complete name : The.Russian.Bride.2019.WEB-DLRip.Portablius.avi
Format : AVI
Format/Info : Audio Video Interleave
File size : 1.37 GiB
Duration : 1 h 41 min
Overall bit rate : 1 934 kb/s
Writing application : VirtualDubMod 1.5.10.3 | http://www.virtualdub-fr.org || (build 2550/release)
Writing library : VirtualDubMod build 2550/release

Video
ID : 0
Format : MPEG-4 Visual
Format profile : Advanced [email protected]
Format settings : BVOP1 / Custom Matrix
Format settings, BVOP : 1
Format settings, QPel : No
Format settings, GMC : No warppoints
Format settings, Matrix : Custom
Codec ID : XVID
Codec ID/Hint : XviD
Duration : 1 h 41 min
Bit rate : 1 669 kb/s
Width : 704 pixels
Height : 320 pixels
Display aspect ratio : 2.2:1
Frame rate : 23.976 (24000/1001) FPS
Color space : YUV
Chroma subsampling : 4:2:0
Bit depth : 8 bits
Scan type : Progressive
Compression mode : Lossy
Bits/(Pixel*Frame) : 0.309
Stream size : 1.18 GiB (86%)
Writing library : XviD 73

Audio
ID : 1
Format : AC-3
Format/Info : Audio Coding 3
Commercial name : Dolby Digital
Codec ID : 2000
Duration : 1 h 41 min
Bit rate mode : Constant
Bit rate : 256 kb/s
Channel(s) : 2 channels
Channel layout : L R
Sampling rate : 48.0 kHz
Frame rate : 31.250 FPS (1536 SPF)
Bit depth : 16 bits
Compression mode : Lossy
Stream size : 186 MiB (13%)
Alignment : Split accross interleaves
Interleave, duration : 42 ms (1.00 video frame)
Interleave, preload duratio : 500 ms
Service kind : Complete Main


Download
Для скачивания .torrent файлов необходима регистрация
Сайт не распространяет и не хранит электронные версии произведений, а лишь предоставляет доступ к создаваемому пользователями каталогу ссылок на торрент-файлы, которые содержат только списки хеш-сумм

Страница 1 из 1

Ответить на тему

   Похожие торренты   Торрент 




cron
tracker_crontracker_cron