Регистрация ·  Логин: Пароль: Запомнить   · Забыли пароль?




Ответить на тему
Статистика раздачи
Размер: 9.49 ГБ | Зарегистрирован: 10 апр 2019, 15:16 | .torrent скачан: 1 раз(а), DHT: [ 1 ] раз(а)
Сидеров: [ 0  | 0 байт/сек ]   Личеров: [ 0  | 0 байт/сек ]   DHT: [ 0 / 0 ]
Автор Сообщение

Модератор

С нами: 2 года 4 месяца
Сообщения: 3361
Россия

Сообщение 10 апр 2019, 15:16 

[Цитировать]


Название: Идеальная западня
Оригинальное название: Welcome Home
Год выхода: 2018
Жанр: Триллер
Режиссер: Джордж Рэтлифф
В ролях: Аарон Пол, Эмили Ратаковски, Риккардо Скамарчо, Кэти Луиз Саундерс, Элис Беллагамба, Франческо Аквароли, Евгений Крылов, Игорь Михайлов, Дафна Александр, Нав Гхотра

О фильме:
Когда вы куда-то едете, насколько вы уверенны в месте вашего назначения? Почему вы думаете, что с вами ничего не случиться? Вот так рискнули Брайан и Кэсси – пара, чьи отношения рушатся с каждым днём. Им нужно пробудить ту самую искру, которая помогала бы гореть их пламени. Они через один сайт арендовали романтическую виллу в деревушке в Италии. Через некоторое время Кэсси нашла себе нового друга – хорошего и доброго мужчину Федерико, который живёт недалеко. Брайан же явно не смог без зависти прожить в компании этого человека. И Федерико умело играет с этой завистью, чтобы поругать пару. У этого парня весьма зловещие планы на гостей.


Страна: США
Студия: AMBI Group, Star Thrower Entertainment, Voltage Pictures
Продолжительность: 01:37:51
Перевод: Дублированный (iTunes)

Файл
Качество: BDRip-HEVC 1080p
Видео: HEVC/x.265, 1920x800, ~12.8 Mb/s
Звук 1: AC3, 6 ch, 384 Kbps Дублированный (iTunes)
Звук 2: AC3, 6 ch, 448 Kbps (Оригинал)
General
Unique ID : 244462096579827324053471340107404731412 (0xB7E9AFECCD92FA45FFD1777FD374E414)
Complete name : E:Welcome Home (2018) BDRip 1080p [HEVC] 10bit.mkv
Format : Matroska
Format version : Version 4
File size : 9.49 GiB
Duration : 1 h 37 min
Overall bit rate : 13.9 Mb/s
Movie name : Идеальная западня
Writing application : XviD4PSP 7.0.468 DAILY
Writing library : Lavf57.71.100
ErrorDetectionType : Per level 1
Attachments : poster.jpg
ACTORS : Эмили Ратаковски, Аарон Пол,
COUNTRY : США
DATE : 2018
DIRECTOR : Джордж Рэтлифф
ENCODING_INFO : MATROSKA,WEBM > MKV 1080p 10-bit / H264 > X265 CRF 17.0 Medium / AC3 > AC3 CBR 384kbps / DTS-HD HRA > AC3 CBR 448kbps
GENRE : триллер
HD_VIDEO : 1
Language : und
MEDIA_TYPE : 9
ORIGINAL_TITLE : Welcome Home

Video
ID : 1
Format : HEVC
Format/Info : High Efficiency Video Coding
Format profile : Main [email protected]@High
Codec ID : V_MPEGH/ISO/HEVC
Duration : 1 h 37 min
Bit rate : 12.8 Mb/s
Width : 1 920 pixels
Height : 800 pixels
Display aspect ratio : 2.40:1
Frame rate mode : Constant
Frame rate : 23.976 (24000/1001) FPS
Color space : YUV
Chroma subsampling : 4:2:0
Bit depth : 10 bits
Bits/(Pixel*Frame) : 0.347
Stream size : 8.74 GiB (92%)
Writing library : x265 2.9+9-f74003e88622:[Windows][GCC 8.2.0][64 bit] 10bit
Encoding settings : cpuid=1111039 / frame-threads=7 / numa-pools=6 / wpp / no-pmode / no-pme / no-psnr / no-ssim / log-level=3 / input-csp=1 / input-res=1920x800 / interlace=0 / total-frames=0 / level-idc=41 / high-tier=1 / uhd-bd=0 / ref=5 / allow-non-conformance / no-repeat-headers / annexb / no-aud / no-hrd / info / hash=0 / no-temporal-layers / open-gop / min-keyint=24 / keyint=240 / gop-lookahead=0 / bframes=8 / b-adapt=2 / b-pyramid / bframe-bias=0 / rc-lookahead=20 / lookahead-slices=5 / scenecut=40 / radl=0 / no-intra-refresh / ctu=64 / min-cu-size=8 / rect / amp / max-tu-size=32 / tu-inter-depth=1 / tu-intra-depth=1 / limit-tu=0 / rdoq-level=0 / dynamic-rd=0.00 / no-ssim-rd / signhide / no-tskip / nr-intra=0 / nr-inter=0 / no-constrained-intra / no-strong-intra-smoothing / max-merge=2 / limit-refs=3 / no-limit-modes / me=3 / subme=7 / merange=57 / temporal-mvp / weightp / no-weightb / no-analyze-src-pics / deblock=-3:-3 / no-sao / no-sao-non-deblock / rd=3 / no-early-skip / rskip / no-fast-intra / no-tskip-fast / no-cu-lossless / no-b-intra / no-splitrd-skip / rdpenalty=0 / psy-rd=2.00 / psy-rdoq=0.00 / no-rd-refine / no-lossless / cbqpoffs=0 / crqpoffs=0 / rc=crf / crf=17.0 / qcomp=0.70 / qpstep=4 / stats-write=0 / stats-read=0 / vbv-maxrate=50000 / vbv-bufsize=50000 / vbv-init=0.9 / crf-max=30.0 / crf-min=0.0 / ipratio=1.40 / pbratio=1.30 / aq-mode=1 / aq-strength=1.00 / cutree / zone-count=0 / no-strict-cbr / qg-size=32 / no-rc-grain / qpmax=69 / qpmin=0 / no-const-vbv / sar=1 / overscan=0 / videoformat=5 / range=0 / colorprim=1 / transfer=1 / colormatrix=1 / chromaloc=0 / display-window=0 / max-cll=0,0 / min-luma=0 / max-luma=1023 / log2-max-poc-lsb=8 / vui-timing-info / vui-hrd-info / slices=1 / no-opt-qp-pps / no-opt-ref-list-length-pps / no-multi-pass-opt-rps / scenecut-bias=0.05 / no-opt-cu-delta-qp / no-aq-motion / no-hdr / no-hdr-opt / no-dhdr10-opt / no-idr-recovery-sei / analysis-reuse-level=5 / scale-factor=0 / refine-intra=0 / refine-inter=0 / refine-mv=0 / no-limit-sao / ctu-info=0 / no-lowpass-dct / refine-mv-type=0 / copy-pic=1 / max-ausize-factor=1.0 / no-dynamic-refine / no-single-sei
Language : English
Default : Yes
Forced : No
Color range : Limited
Color primaries : BT.709
Transfer characteristics : BT.709
Matrix coefficients : BT.709

Audio #1
ID : 2
Format : AC-3
Format/Info : Audio Coding 3
Commercial name : Dolby Digital
Codec ID : A_AC3
Duration : 1 h 37 min
Bit rate mode : Constant
Bit rate : 384 kb/s
Channel(s) : 6 channels
Channel layout : L R C LFE Ls Rs
Sampling rate : 48.0 kHz
Frame rate : 31.250 FPS (1536 SPF)
Bit depth : 16 bits
Compression mode : Lossy
Stream size : 269 MiB (3%)
Title : iTunes
Language : Russian
Service kind : Complete Main
Default : Yes
Forced : No

Audio #2
ID : 3
Format : AC-3
Format/Info : Audio Coding 3
Commercial name : Dolby Digital
Codec ID : A_AC3
Duration : 1 h 37 min
Bit rate mode : Constant
Bit rate : 448 kb/s
Channel(s) : 6 channels
Channel layout : L R C LFE Ls Rs
Sampling rate : 48.0 kHz
Frame rate : 31.250 FPS (1536 SPF)
Bit depth : 16 bits
Compression mode : Lossy
Stream size : 314 MiB (3%)
Language : English
Service kind : Complete Main
Default : No
Forced : No

Menu
00:00:00.000 : :Chapter 01
00:06:42.068 : :Chapter 02
00:12:26.996 : :Chapter 03
00:18:53.006 : :Chapter 04
00:25:27.943 : :Chapter 05
00:32:08.051 : :Chapter 06
00:37:09.393 : :Chapter 07
00:42:48.941 : :Chapter 08
00:48:54.389 : :Chapter 09
00:53:10.687 : :Chapter 10
00:59:34.779 : :Chapter 11
01:05:20.791 : :Chapter 12
01:10:48.744 : :Chapter 13
01:16:07.145 : :Chapter 14
01:22:30.236 : :Chapter 15
01:28:50.366 : :Chapter 16
01:34:49.433 : :Chapter 17



Релиз от: Donatik

Download
Для скачивания .torrent файлов необходима регистрация
Сайт не распространяет и не хранит электронные версии произведений, а лишь предоставляет доступ к создаваемому пользователями каталогу ссылок на торрент-файлы, которые содержат только списки хеш-сумм

Страница 1 из 1

Ответить на тему

   Похожие торренты   Торрент 




tracker_crontracker_cron