Регистрация ·  Логин: Пароль: Запомнить   · Забыли пароль?




Ответить на тему
Статистика раздачи
Размер: 1.3 ГБ | Зарегистрирован: 28 янв 2019, 22:53 | .torrent скачан: 4 раз(а), DHT: [ 18 ] раз(а)
Сидеров: [ 14  | 0 байт/сек ]   Личеров: [ 0  | 0 байт/сек ]   DHT: [ 14 / 0 ]
Автор Сообщение

Почётный релизер
Аватара пользователя

С нами: 7 лет 4 месяца
Сообщения: 3451
Откуда: Казань
Россия

Сообщение 28 янв 2019, 22:53 

[Цитировать]


Информация о фильме
Название: Комната погибели
Оригинальное название: Doom Room

Год выхода: 2019
Жанр: Ужасы
Режиссер: Джон Кейес
В ролях: Николас Болл, Клэр Джаред, Карл Киршнер, Дэбби Рошон, Джоанна Стэнтон, Мэттью Томпкинс, Хейден Твиди
О фильме:
Девушка просыпается в маленькой комнате и понимает, что не помнит кто она и как она здесь очутилась. Время от времени рядом с ней появляются и исчезают пугающие паранормальные существа, происхождение которых ей предстоит определить, чтобы вырваться на волю.



Страна: США, Highland Myst Entertainment
Продолжительность: 01:32:57
Перевод: Любительский (двухголосый закадровый) | HiWay Grope

Файл
Кодек: XviD
Качество: WEBRip
Видео: 720x400, 23.976 fps, ~1796 kbps, 0.26 bit/pixel
Звук:
Аудио rus: AC3, 48 kHz, 2 ch, 192 Kbps
Субтитры: отсутствуют

Реклама: присутствует

Семпл

General
Complete name : D:Doom.Room.2019.WEBRip.HiWayGropeDoom.Room.2019.WEBRip.HiWayGrope.avi
Format : AVI
Format/Info : Audio Video Interleave
Format profile : OpenDML
File size : 1.30 GiB
Duration : 1 h 32 min
Overall bit rate : 1 996 kb/s
Writing application : Lavf57.71.100

Video
ID : 0
Format : MPEG-4 Visual
Format profile : Advanced [email protected]
Format settings, BVOP : No
Format settings, QPel : No
Format settings, GMC : No warppoints
Format settings, Matrix : Default (H.263)
Codec ID : XVID
Codec ID/Hint : XviD
Duration : 1 h 32 min
Bit rate : 1 791 kb/s
Width : 720 pixels
Height : 400 pixels
Display aspect ratio : 16:9
Frame rate : 23.976 (24000/1001) FPS
Color space : YUV
Chroma subsampling : 4:2:0
Bit depth : 8 bits
Scan type : Progressive
Compression mode : Lossy
Bits/(Pixel*Frame) : 0.259
Stream size : 1.16 GiB (90%)
Writing library : XviD 67

Audio
ID : 1
Format : AC-3
Format/Info : Audio Coding 3
Commercial name : Dolby Digital
Codec ID : 2000
Duration : 1 h 32 min
Bit rate mode : Constant
Bit rate : 192 kb/s
Channel(s) : 2 channels
Channel layout : L R
Sampling rate : 48.0 kHz
Frame rate : 31.250 FPS (1536 SPF)
Bit depth : 16 bits
Compression mode : Lossy
Stream size : 128 MiB (10%)
Alignment : Aligned on interleaves
Interleave, duration : 32 ms (0.77 video frame)
Service kind : Complete Main



Релиз от: HiWay Grope

Download
Для скачивания .torrent файлов необходима регистрация
Сайт не распространяет и не хранит электронные версии произведений, а лишь предоставляет доступ к создаваемому пользователями каталогу ссылок на торрент-файлы, которые содержат только списки хеш-сумм

Страница 1 из 1

Ответить на тему

   Похожие торренты   Торрент 




tracker_crontracker_cron