Регистрация ·  Логин: Пароль: Запомнить   · Забыли пароль?




Ответить на тему
Статистика раздачи
Размер: 2.06 ГБ | Зарегистрирован: 28 янв 2019, 22:53 | .torrent скачан: 1 раз(а), DHT: [ 1 ] раз(а)
Сидеров: [ 0  | 0 байт/сек ]   Личеров: [ 0  | 0 байт/сек ]   DHT: [ 0 / 0 ]
Автор Сообщение

Почётный релизер
Аватара пользователя

С нами: 7 лет 4 месяца
Сообщения: 3451
Откуда: Казань
Россия

Сообщение 28 янв 2019, 22:53 

[Цитировать]


Информация о фильме
Название: Комната погибели
Оригинальное название: Doom Room

Год выхода: 2019
Жанр: Ужасы
Режиссер: Джон Кейес
В ролях: Николас Болл, Клэр Джаред, Карл Киршнер, Дэбби Рошон, Джоанна Стэнтон, Мэттью Томпкинс, Хейден Твиди
О фильме:
Девушка просыпается в маленькой комнате и понимает, что не помнит кто она и как она здесь очутилась. Время от времени рядом с ней появляются и исчезают пугающие паранормальные существа, происхождение которых ей предстоит определить, чтобы вырваться на волю.



Страна: США, Highland Myst Entertainment
Продолжительность: 01:32:57
Перевод: Любительский (двухголосый закадровый) | HiWay Grope

Файл
Кодек: MPEG-4 AVC/x.264
Качество: WEBRip 720p
Видео: 1280x720, 23.976 fps, ~2973 kbps, 0.135 bit/pixel
Звук:
Аудио rus: AC3, 48 kHz, 2 ch, 192 Kbps
Субтитры: отсутствуют

Реклама: присутствует

Семпл

General
Unique ID : 271444116358599540637935841978342214764 (0xCC363C358F9DB021C265DC5871508C6C)
Complete name : D:Doom.Room.2019.720p.WEBRip.HiWayGropeDoom.Room.2019.720p.WEBRip.HiWayGrope.mkv
Format : Matroska
Format version : Version 4
File size : 2.06 GiB
Duration : 1 h 32 min
Overall bit rate mode : Variable
Overall bit rate : 3 167 kb/s
Encoded date : UTC 2019-01-26 02:02:45
Writing application : mkvmerge v25.0.0 ('Prog Noir') 64-bit
Writing library : libebml v1.3.6 + libmatroska v1.4.9

Video
ID : 1
Format : AVC
Format/Info : Advanced Video Codec
Format profile : [email protected]
Format settings : CABAC / 4 Ref Frames
Format settings, CABAC : Yes
Format settings, RefFrames : 4 frames
Codec ID : V_MPEG4/ISO/AVC
Duration : 1 h 32 min
Bit rate mode : Variable
Bit rate : 2 973 kb/s
Maximum bit rate : 12.0 Mb/s
Width : 1 280 pixels
Height : 720 pixels
Display aspect ratio : 16:9
Frame rate mode : Constant
Frame rate : 23.976 (24000/1001) FPS
Standard : NTSC
Color space : YUV
Chroma subsampling : 4:2:0
Bit depth : 8 bits
Scan type : Progressive
Bits/(Pixel*Frame) : 0.135
Stream size : 1.93 GiB (94%)
Language : English
Default : Yes
Forced : No
Color range : Limited
Color primaries : BT.709
Transfer characteristics : BT.709
Matrix coefficients : BT.709

Audio
ID : 2
Format : AC-3
Format/Info : Audio Coding 3
Commercial name : Dolby Digital
Codec ID : A_AC3
Duration : 1 h 32 min
Bit rate mode : Constant
Bit rate : 192 kb/s
Channel(s) : 2 channels
Channel layout : L R
Sampling rate : 48.0 kHz
Frame rate : 31.250 FPS (1536 SPF)
Bit depth : 16 bits
Compression mode : Lossy
Stream size : 128 MiB (6%)
Service kind : Complete Main
Default : Yes
Forced : No



Релиз от: HiWay Grope

Download
Для скачивания .torrent файлов необходима регистрация
Сайт не распространяет и не хранит электронные версии произведений, а лишь предоставляет доступ к создаваемому пользователями каталогу ссылок на торрент-файлы, которые содержат только списки хеш-сумм

Страница 1 из 1

Ответить на тему

   Похожие торренты   Торрент 




tracker_crontracker_cron