Регистрация ·  Логин: Пароль: Запомнить   · Забыли пароль?




Ответить на тему
Статистика раздачи
Размер: 1.22 ГБ | Зарегистрирован: 28 янв 2019, 22:52 | .torrent скачан: 6 раз(а), DHT: [ 6 ] раз(а)
Сидеров: [ 0  | 0 байт/сек ]   Личеров: [ 0  | 0 байт/сек ]   DHT: [ 0 / 0 ]
Автор Сообщение

Почётный релизер
Аватара пользователя

С нами: 7 лет 4 месяца
Сообщения: 3451
Откуда: Казань
Россия

Сообщение 28 янв 2019, 22:52 

[Цитировать]


Информация о фильме
Название: Разлом
Оригинальное название: Loophole

Год выхода: 2019
Жанр: Фантастика
Режиссер: Дженни Айверс
В ролях: Хлоя Лукасиак, Кера О'Брайон, Тимоти Э. Гудвин, Девен Бромм, Габриэль Валладарес, Эмили Лапизарди, Дэвис Осборн, Майкл Сиглер, Уилл Стекман, Гари Ли Винсент
О фильме:
Будущее жизни на Земле зависит от равновесия добра и зла, и обе стороны пытаются найти последнюю из рода Иуды, чтобы одержать победу в этой борьбе. Ею оказывается простая студентка, Лекси Смит - теперь она знает, кто она такая, и как ей надо действовать - но хватит ли ей времени для спасения всего человечества?



Страна: США, Hostetler/Bromme Productions
Продолжительность: 01:26:57
Перевод: Любительский (двухголосый закадровый) | HiWay Grope

Файл
Кодек: XviD
Качество: WEBRip
Видео: 720x304, 23.976 fps, ~1805 kbps, 0.34 bit/pixel
Звук:
Аудио rus: AC3, 48 kHz, 2 ch, 192 Kbps
Субтитры: отсутствуют

Реклама: присутствует

Семпл

General
Complete name : D:Loophole.2019.WEBRip.HiWayGropeLoophole.2019.WEBRip.HiWayGrope.avi
Format : AVI
Format/Info : Audio Video Interleave
Format profile : OpenDML
File size : 1.22 GiB
Duration : 1 h 26 min
Overall bit rate : 2 004 kb/s
Writing application : Lavf57.71.100

Video
ID : 0
Format : MPEG-4 Visual
Format profile : Advanced [email protected]
Format settings, BVOP : No
Format settings, QPel : No
Format settings, GMC : No warppoints
Format settings, Matrix : Default (H.263)
Codec ID : XVID
Codec ID/Hint : XviD
Duration : 1 h 26 min
Bit rate : 1 799 kb/s
Width : 720 pixels
Height : 304 pixels
Display aspect ratio : 2.35:1
Frame rate : 23.976 (24000/1001) FPS
Color space : YUV
Chroma subsampling : 4:2:0
Bit depth : 8 bits
Scan type : Progressive
Compression mode : Lossy
Bits/(Pixel*Frame) : 0.343
Stream size : 1.09 GiB (90%)
Writing library : XviD 67

Audio
ID : 1
Format : AC-3
Format/Info : Audio Coding 3
Commercial name : Dolby Digital
Codec ID : 2000
Duration : 1 h 26 min
Bit rate mode : Constant
Bit rate : 192 kb/s
Channel(s) : 2 channels
Channel layout : L R
Sampling rate : 48.0 kHz
Frame rate : 31.250 FPS (1536 SPF)
Bit depth : 16 bits
Compression mode : Lossy
Stream size : 119 MiB (10%)
Alignment : Aligned on interleaves
Interleave, duration : 32 ms (0.77 video frame)
Service kind : Complete Main



Релиз от: HiWay Grope


Download
Для скачивания .torrent файлов необходима регистрация
Сайт не распространяет и не хранит электронные версии произведений, а лишь предоставляет доступ к создаваемому пользователями каталогу ссылок на торрент-файлы, которые содержат только списки хеш-сумм

Страница 1 из 1

Ответить на тему

   Похожие торренты   Торрент 




cron