Регистрация ·  Логин: Пароль: Запомнить   · Забыли пароль?




Ответить на тему
Статистика раздачи
Размер: 1.15 ГБ | Зарегистрирован: 28 янв 2019, 22:52 | .torrent скачан: 1 раз(а), DHT: [ 20 ] раз(а)
Сидеров: [ 3  | 0 байт/сек ]   Личеров: [ 1  | 0 байт/сек ]   DHT: [ 3 / 1 ]
Автор Сообщение

Почётный релизер
Аватара пользователя

С нами: 7 лет 4 месяца
Сообщения: 3451
Откуда: Казань
Россия

Сообщение 28 янв 2019, 22:52 

[Цитировать]


Информация о фильме
Название: Пони с перебитым крылом / Пегас: Пони со сломанным крылом
Оригинальное название: Pegasus: Pony with a Broken Wing

Год выхода: 2019
Жанр: Семейный
Режиссер: Джорджо Серафини
В ролях: Джонатан Силвермен, Чаризма Карпентер, Том Арнольд, Элиза Джарретт, Джордан Эльсасс, Джонни Синклер Серафини, Дженнифер Гриффин, Эль Ламонт, Сэмюэл Френч
О фильме:
Семья на грани банкротства и потери своего ранчо, случайно находит крылатого коня, который полностью меняет их жизнь. В общем, сказка для взрослых, которые верят в чудеса.



Страна: США, Alpha Hollywood Studios, Hollywood Media Bridge, Lighthouse Pictures
Продолжительность: 01:26:16
Перевод: Любительский (двухголосый закадровый) | HiWay Grope

Файл
Кодек: MPEG-4 AVC/x.264
Качество: DVDRip-AVC
Видео: 704x400, 23.976 fps, ~1693 kbps, 0.245 bit/pixel
Звук:
Аудио rus: AC3, 48 kHz, 2 ch, 192 Kbps
Субтитры: отсутствуют

Реклама: присутствует

Семпл

General
Unique ID : 276748045727335937709313646938345624987 (0xD033BC1DEE070DE914A6FD96BF8ED59B)
Complete name : D:Pony.With.A.Broken.Wing.2019.DVDRip-AVC.HiWayGropePony.With.A.Broken.Wing.2019.DVDRip-AVC.HiWayGrope.mkv
Format : Matroska
Format version : Version 4
File size : 1.15 GiB
Duration : 1 h 26 min
Overall bit rate : 1 887 kb/s
Encoded date : UTC 2019-01-14 09:12:35
Writing application : mkvmerge v30.0.0 ('Interstellar') 64-bit
Writing library : libebml v1.3.6 + libmatroska v1.4.9

Video
ID : 1
Format : AVC
Format/Info : Advanced Video Codec
Format profile : [email protected]
Format settings : CABAC / 4 Ref Frames
Format settings, CABAC : Yes
Format settings, RefFrames : 4 frames
Codec ID : V_MPEG4/ISO/AVC
Duration : 1 h 26 min
Bit rate : 1 693 kb/s
Width : 720 pixels
Height : 400 pixels
Display aspect ratio : 16:9
Frame rate mode : Constant
Frame rate : 23.976 (24000/1001) FPS
Standard : NTSC
Color space : YUV
Chroma subsampling : 4:2:0
Bit depth : 8 bits
Scan type : Progressive
Bits/(Pixel*Frame) : 0.245
Stream size : 1.03 GiB (90%)
Language : English
Default : Yes
Forced : No
Color range : Limited
Color primaries : BT.601 NTSC
Transfer characteristics : BT.601
Matrix coefficients : BT.601

Audio
ID : 2
Format : AC-3
Format/Info : Audio Coding 3
Commercial name : Dolby Digital
Codec ID : A_AC3
Duration : 1 h 26 min
Bit rate mode : Constant
Bit rate : 192 kb/s
Channel(s) : 2 channels
Channel layout : L R
Sampling rate : 48.0 kHz
Frame rate : 31.250 FPS (1536 SPF)
Bit depth : 16 bits
Compression mode : Lossy
Stream size : 119 MiB (10%)
Language : Russian
Service kind : Complete Main
Default : Yes
Forced : No



Релиз от: HiWay Grope

Download
Для скачивания .torrent файлов необходима регистрация
Сайт не распространяет и не хранит электронные версии произведений, а лишь предоставляет доступ к создаваемому пользователями каталогу ссылок на торрент-файлы, которые содержат только списки хеш-сумм

Страница 1 из 1

Ответить на тему

   Похожие торренты   Торрент 




tracker_crontracker_cron