Регистрация ·  Логин: Пароль: Запомнить   · Забыли пароль?




Ответить на тему
Статистика раздачи
Размер: 939.94 МБ | Зарегистрирован: 30 июл 2013, 04:48 | .torrent скачан: 0 раз(а), DHT: [ 0 ] раз(а)
Сидеров: [ 1  | 0 байт/сек ]   Личеров: [ 0  | 0 байт/сек ]   DHT: [ 1 / 0 ]
Автор Сообщение

Аватара пользователя

Стаж: 8 лет 9 месяцев
Сообщения: 58117
Египет

Сообщение 30 июл 2013, 04:48 

[Цитировать]

AtkinsRotary.com - Overhauling Mazda's 13B Rotary Engine. Instructional Video / Ремонт роторных двигателей Mazda 13B. Обучающее видео



Страна: США
Продолжительность: 1 час
Язык: Английский
Русские субтитры: нет
Описание: Показаны процессы разборки, дефектовки и сборки роторного двигателя Mazda 13B.
Автор: AtkinsRotary.com
Качество видео: DVDRip
Формат видео: AVI
Видео: Xvid 720x480 29.97fps
Аудио: MPEG Audio Layer 3 44100Hz stereo 160Kbps
Скриншоты
Отчет MediaInfo
General
Complete name : G:\Video\(other)\Автомобили\AtkinsRotary.com Instructional Rebuild Video\AtkinsRotary.com Instructional Rebuild Video.avi
Format : AVI
Format/Info : Audio Video Interleave
File size : 940 MiB
Duration : 1h 0mn
Overall bit rate : 2 168 Kbps
Writing library : VirtualDub build 32842/release

Video
ID : 0
Format : MPEG-4 Visual
Format profile : [email protected]
Format settings, BVOP : No
Format settings, QPel : No
Format settings, GMC : No warppoints
Format settings, Matrix : Default (H.263)
Codec ID : XVID
Codec ID/Hint : XviD
Duration : 1h 0mn
Bit rate : 1 996 Kbps
Width : 720 pixels
Height : 480 pixels
Display aspect ratio : 3:2
Frame rate : 29.970 fps
Standard : NTSC
Color space : YUV
Chroma subsampling : 4:2:0
Bit depth : 8 bits
Scan type : Progressive
Compression mode : Lossy
Bits/(Pixel*Frame) : 0.193
Stream size : 865 MiB (92%)
Writing library : XviD 1.2.1 (UTC 2008-12-04)

Audio
ID : 1
Format : MPEG Audio
Format version : Version 1
Format profile : Layer 3
Mode : Joint stereo
Mode extension : MS Stereo
Codec ID : 55
Codec ID/Hint : MP3
Duration : 1h 0mn
Bit rate mode : Constant
Bit rate : 160 Kbps
Channel(s) : 2 channels
Sampling rate : 44.1 KHz
Compression mode : Lossy
Stream size : 69.4 MiB (7%)
Alignment : Split accross interleaves
Interleave, duration : 33 ms (1.00 video frame)
Interleave, preload duration : 500 ms
Writing library : LAME3.98.2

Download
Для скачивания .torrent файлов необходима регистрация
Сайт не распространяет и не хранит электронные версии произведений, а лишь предоставляет доступ к создаваемому пользователями каталогу ссылок на торрент-файлы, которые содержат только списки хеш-сумм

Страница 1 из 1

Ответить на тему

   Похожие торренты   Торрент 




tracker_crontracker_crontracker_cron